小众纪录片影视聚合

 找回密码
 立即注册
查看: 7|回复: 0

[蓝光电影] [2023][台湾][犯罪][BT下载][追缉][WebDL-MKV/4.07GB][中字][1080P][张钧甯阮经天2023悬疑犯罪大片]

[复制链接]

30万

主题

30万

帖子

30万

积分

超级版主

Rank: 8Rank: 8

积分
305609
发表于 2024-5-13 23:02:01 | 显示全部楼层 |阅读模式


[2023][台湾][犯罪][BT下载][追缉][WebDL-MKV/4.07GB][中字][1080P][张钧甯阮经天2023悬疑犯罪大片]

译  名 追缉/查无此心/被操纵的罪恶/野鬼
片  名 The Abandoned
年  代 2023
国  家 中国台湾
类  别 悬疑/犯罪/惊悚
语  言 汉语普通话/泰语/闽南语/英语
字  幕 中简/中繁
评  分 6.3/10 from 14,268 users
链  接 https://movie.douban.com/subject/35427293
文件大小 4.07 GB
片  长 105 Min
导  演 曾英庭 Ying-ting Tseng
主  演 张钧甯 Chun-Ning Chang
     阮经天 Ethan Juan
     游安顺 An-shun Yu
     萨吉·阿皮旺 Sajee Apiwong
     陈为民 Wei-min Chen
     项婕如 Chloe Xiang
     薛仕凌 Simon Hsueh
     黄镫辉 Huang Teng-Hui
     傅孟柏 Meng-Po Fu
     吕雪凤 Hsueh-Feng Lu
简介
  痛失爱人的女警吴洁(张钧甯 饰)在自杀前一刻偶遇一起杀人案件,案件中的女性水流尸被挖除心脏、切下无名指,昭示着这些女性被杀害前曾遭受非人虐待,一起针对雅隆女劳工的连环变态凶杀案在吴洁面前缓缓展开。在案件调查过程中,吴洁发现所有的证据都指向受害者的前男友,非法人力中介林佑生(阮经天 饰)。他和死者纠缠错乱的爱恨情仇使他成为了案件最大的嫌疑人……以爱为名的杀人狂徒究竟隐藏了什么真相,高能逆转,结局难料!
Video
Format         : AVC
Format/Info      : Advanced Video Codec
Format profile     : Main@L4
Format settings      : CABAC / 3 Ref Frames
Format settings, CABAC   : Yes
Format settings, Reference fra : 3 frames
Codec ID       : V_MPEG4/ISO/AVC
Duration       : 1 h 44 min
Bit rate mode      : Variable
Bit rate       : 5 000 kb/s
Maximum bit rate     : 7 500 kb/s
Width        : 1 920 pixels
Height         : 1 080 pixels
Display aspect ratio   : 16:9
Frame rate mode      : Constant
Frame rate       : 24.000 FPS
Color space      : YUV
Chroma subsampling     : 4:2:0
Bit depth        : 8 bits
Scan type        : Progressive
Bits/(Pixel*Frame)     : 0.100
Stream size      : 3.60 GiB (88%)
Audio
Format         : E-AC-3
Format/Info      : Enhanced AC-3
Commercial name      : Dolby Digital Plus
Codec ID       : A_EAC3
Duration       : 1 h 44 min
Bit rate mode      : Constant
Bit rate       : 640 kb/s
Channel(s)       : 6 channels
Channel layout     : L R C LFE Ls Rs
Sampling rate      : 48.0 kHz
Frame rate       : 31.250 FPS (1536 SPF)
Compression mode     : Lossy
Stream size      : 479 MiB (11%)
Service kind       : Complete Main






~~~~~~~~~~~~~~~~~~~~~~~~~~~~~~~~~~~~~~~~~
[2023][台湾][犯罪][BT下载][追缉][WebDL-MKV/4.07GB][中字][1080P][张钧甯阮经天2023悬疑犯罪大片]

【文件列表】:


追缉.查无此心.



【下载地址列表】:


游客
文件下载链接就在这里,在您回复评论成功后才能显示。
请勿回复无意义的灌水内容。


下拉页面到最底部回复或者【点击此处快捷回复】,回复后返回此处即可查看下载链接。
如您没注册本站会员,可以点击注册本站,注册后即可回复下载。



软字幕无法在截图上展现,HDR版本/杜比视界版本截图会出现颜色异常,请使用支持的设备播放!













(HDR版本/杜比视界版本,截图会出现颜色异常,请使用支持的设备播放)

小贴士:【影视自媒体解说文案请移步:夏至文案解说网 www.xiazhi.vip

上一篇:[2023][美国][动作][BT下载][忍者神龟:变种大乱斗][BD-MKV/8.92GB][四语][1080P][美国2023视效]
下一篇:[2021][欧美][剧情][BT下载][世界上最糟糕的人][BD-MKV/11.9GB][中字][1080P][2021超高分大尺度]
回复

使用道具 举报

您需要登录后才可以回帖 登录 | 立即注册

本版积分规则

Archiver|手机版|小众纪录片影视聚合

GMT+8, 2024-5-21 05:03 , Processed in 0.066835 second(s), 16 queries , Gzip On, Redis On.

Powered by 小众纪录片影视聚合 @2010-2023

Copyright © 2010-2024, https://www.xzjlp.com/.


免责说明:本站所有内容链接、图文介绍等均来自于互联网网友分享,本站仅支持web页面展示和文字介绍,绝不提供在线观看和存储服务,也不参与录制、上传、压片。若本站收录内容无意侵犯贵司版权,请发邮件到【a885185#163.com】联系本站,我们将在第一时间删除侵权内容。谢谢!

快速回复 返回顶部 返回列表