小众纪录片影视聚合

 找回密码
 立即注册
查看: 12|回复: 0

[蓝光电影] [2014][欧美][剧情][BD-1080P]午夜邂逅[中文字幕].Before.We.Go.2014.1080p.BluRay.Remux.AVC.TrueHD.5.1-ParkHD 17.99GB

[复制链接]

113万

主题

113万

帖子

113万

积分

超级版主

Rank: 8Rank: 8

积分
1134459
发表于 2024-7-9 21:55:56 | 显示全部楼层 |阅读模式


[2014][欧美][剧情][BD-1080P]午夜邂逅[中文字幕].Before.We.Go.2014.1080p.BluRay.Remux.AVC.TrueHD.5.1-ParkHD 17.99GB

完整标题:午夜邂逅[中文字幕].Before.We.Go.2014.1080p.BluRay.Remux.AVC.TrueHD.5.1-ParkHD 17.99GB
◎标  题 午夜邂逅
◎译  名 日出前的邂逅(港) / 纽约爱未眠(台) / 我们离开前 / 1点半的火车 / 爱在各奔东西前(豆友译名) / 1:30 Train / Centricity
◎片  名 Before We Go
◎年  代 2014
◎产  地 美国
◎类  别 剧情 / 喜剧 / 爱情
◎语  言 英语
◎上映日期 2014-09-12(多伦多电影节) / 2015-07-21(网络)
◎IMDb评分 6.8/10 (59882人评价)
◎IMDb链接 https://www.imdb.com/title/tt0443465/
◎豆瓣评分 7.1/10 (17922人评价)
◎豆瓣链接 https://movie.douban.com/subject/24883815/
◎片  长 95分钟
◎导  演 克里斯·埃文斯 Chris Evans
◎编  剧 罗纳德·巴斯 Ronald Bass
       珍·斯莫尔卡 Jen Smolka
◎演  员 克里斯·埃文斯 Chris Evans
       爱丽丝·伊芙 Alice Eve
       玛丽亚·布雷曼 Maria Breyman
       斯科特·埃文斯 Scott Evans
       艾玛·菲茨帕特里克 Emma Fitzpatrick
       马克·凯森 Mark Kassen
       丹尼尔·斯平克 Daniel Spink
       小艾利·伍兹 Allie Woods Jr.
◎简  介
    一名女子Brooke(爱丽丝·伊芙 Alice Eve 饰)急着赶1:30开往波士顿的火车,然而终究晚了一步,Nick(克里斯·埃文斯 Chris Evans 饰)捡起她匆忙中遗落的手机,得知失窃的她必须及时赶回家中,Nick想要施以援手,然而信用卡不能使用,机缘巧合下,陌生的两个人通过彼此内心的交谈,重新找回生活方向。 这是克里斯·埃文斯的导演处女作,有点类似于理查德·林克莱特《日落之前》系列的电影,埃文斯还会担任主演和制片人,《雨人》罗纳德·巴斯编剧。##### MediaInfo ######
General
Unique ID                                : 102486299683029995975179102063416613048 (0x4D1A24B24055EB08EDABFA0A773898B8)
Complete name                            : Before.We.Go.2014.1080p.BluRay.Remux.AVC.TrueHD.5.1-ParkHD.mkv
Duration                                 : 1 h 35 min
Overall bit rate mode                    : Variable
Overall bit rate                         : 27.0 Mb/s
Video
ID                                       : 1
ID in the original source medium         : 4113 (0x1011)
Format                                   : AVC
Format/Info                              : Advanced Video Codec
Format profile                           : [email protected]
Format settings                          : CABAC / 4 Ref Frames
Format settings, CABAC                   : Yes
Format settings, Reference frames        : 4 frames
Codec ID                                 : V_MPEG4/ISO/AVC
Duration                                 : 1 h 35 min
Bit rate mode                            : Variable
Bit rate                                 : 23.9 Mb/s
Maximum bit rate                         : 35.0 Mb/s
Width                                    : 1 920 pixels
Height                                   : 1 080 pixels
Display aspect ratio                     : 16:9
Frame rate mode                          : Constant
Frame rate                               : 23.976 (24000/1001) FPS
Color space                              : YUV
Chroma subsampling                       : 4:2:0
Bit depth                                : 8 bits
Scan type                                : Progressive
Bits/(Pixel*Frame)                       : 0.480
Stream size                              : 15.9 GiB (88%)
Default                                  : Yes
Forced                                   : No
Original source medium                   : Blu-ray
Audio #1
ID                                       : 2
ID in the original source medium         : 4352 (0x1100)
Format                                   : MLP FBA
Format/Info                              : Meridian Lossless Packing FBA
Commercial name                          : Dolby TrueHD
Codec ID                                 : A_TRUEHD
Duration                                 : 1 h 35 min
Bit rate mode                            : Variable
Bit rate                                 : 2 416 kb/s
Maximum bit rate                         : 3 318 kb/s
Channel(s)                               : 6 channels
Channel layout                           : L R C LFE Ls Rs
Sampling rate                            : 96.0 kHz
Frame rate                               : 1 200.000 FPS (80 SPF)
Compression mode                         : Lossless
Stream size                              : 1.61 GiB (9%)
Language                                 : English
Default                                  : Yes
Forced                                   : No
Original source medium                   : Blu-ray
Audio #2
ID                                       : 3
ID in the original source medium         : 4352 (0x1100)
Format                                   : AC-3
Format/Info                              : Audio Coding 3
Commercial name                          : Dolby Digital
Codec ID                                 : A_AC3
Duration                                 : 1 h 35 min
Bit rate mode                            : Constant
Bit rate                                 : 640 kb/s
Channel(s)                               : 6 channels
Channel layout                           : L R C LFE Ls Rs
Sampling rate                            : 48.0 kHz
Frame rate                               : 31.250 FPS (1536 SPF)
Compression mode                         : Lossy
Stream size                              : 437 MiB (2%)
Language                                 : English
Service kind                             : Complete Main
Default                                  : Yes
Forced                                   : No
Original source medium                   : Blu-ray
Text #1
ID                                       : 4
ID in the original source medium         : 4608 (0x1200)
Format                                   : PGS
Muxing mode                              : zlib
Codec ID                                 : S_HDMV/PGS
Codec ID/Info                            : Picture based subtitle format used on BDs/HD-DVDs
Duration                                 : 1 h 28 min
Bit rate                                 : 41.7 kb/s
Frame rate                               : 0.393 FPS
Count of elements                        : 2087
Stream size                              : 26.4 MiB (0%)
Language                                 : Chinese
Default                                  : Yes
Forced                                   : No
Original source medium                   : Blu-ray
Text #2
ID                                       : 5
ID in the original source medium         : 4609 (0x1201)
Format                                   : PGS
Muxing mode                              : zlib
Codec ID                                 : S_HDMV/PGS
Codec ID/Info                            : Picture based subtitle format used on BDs/HD-DVDs
Duration                                 : 1 h 25 min
Bit rate                                 : 54.2 kb/s
Frame rate                               : 0.403 FPS
Count of elements                        : 2072
Stream size                              : 33.2 MiB (0%)
Language                                 : English
Default                                  : Yes
Forced                                   : No
Original source medium                   : Blu-ray
Menu
00:00:00.000                             : en:第 01 章
00:07:15.977                             : en:第 02 章
00:15:49.073                             : en:第 03 章
00:27:12.213                             : en:第 04 章
00:32:26.569                             : en:第 05 章
00:38:57.543                             : en:第 06 章
00:48:24.776                             : en:第 07 章
00:55:04.009                             : en:第 08 章
01:04:36.664                             : en:第 09 章
01:11:13.269                             : en:第 10 章
01:18:05.806                             : en:第 11 章
01:29:15.183                             : en:第 12 章
部分资源为软字幕,移动端推荐播放器:MxPlayer,nPlayer,infuse ,其他播放器请自行尝试。
部分资源为软字幕,电脑端推荐播放器:PotPlayer,完美解码,KMPLAYER,其他播放器请自行尝试。
下载端推荐纯BT下载软件:qBittorrent,Bitcomet,uTorrent ,其他下载软件请自行尝试。不支持吸血迅雷。






~~~~~~~~~~~~~~~~~~~~~~~~~~~~~~~~~~~~~~~~~
[2014][欧美][剧情][BD-1080P]午夜邂逅[中文字幕].Before.We.Go.2014.1080p.BluRay.Remux.AVC.TrueHD.5.1-ParkHD 17.99GB

【文件列表】:


Before.We.Go.2014.1080p.BluRay.Remux.AVC.TrueHD.5.1-ParkHD.



【下载地址列表】:


游客
文件下载链接就在这里,在您回复评论成功后才能显示。
请勿回复无意义的灌水内容。


下拉页面到最底部回复或者【点击此处快捷回复】,回复后返回此处即可查看下载链接。
如您没注册本站会员,可以点击注册本站,注册后即可回复下载。



软字幕无法在截图上展现,HDR版本/杜比视界版本截图会出现颜色异常,请使用支持的设备播放!






[img][/img]






[img][/img]

(HDR版本/杜比视界版本,截图会出现颜色异常,请使用支持的设备播放)

小贴士:【影视自媒体解说文案请移步:夏至文案解说网 www.xiazhi.vip

上一篇:[更 早][其它][剧情][BD-1080P]生生长流[简繁英字幕].And.Life.Goes.on.1992.CC.V2.1080p.BluRay.x264.FLAC.1.0- 10.07G
下一篇:[2014][欧美][剧情][BD-1080P]午夜邂逅[中文字幕].Before.We.Go.2014.1080p.BluRay.x264.TrueHD.5.1-ParkHD 8.53GB
回复

使用道具 举报

您需要登录后才可以回帖 登录 | 立即注册

本版积分规则

Archiver|手机版|小众纪录片影视聚合

GMT+8, 2024-7-22 05:55 , Processed in 0.074375 second(s), 12 queries , Gzip On, Redis On.

Powered by 小众纪录片影视聚合 @2010-2023

Copyright © 2010-2024, https://www.xzjlp.com/.


免责说明:本站所有内容链接、图文介绍等均来自于互联网网友分享,本站仅支持web页面展示和文字介绍,绝不提供在线观看和存储服务,也不参与录制、上传、压片。若本站收录内容无意侵犯贵司版权,请发邮件到【a885185#163.com】联系本站,我们将在第一时间删除侵权内容。谢谢!

快速回复 返回顶部 返回列表