小众纪录片影视聚合

 找回密码
 立即注册
查看: 1|回复: 0

[蓝光电影] [2024][大陆][剧情][BT下载][热辣滚烫][WebDL-MKV/4.56GB][国语][2160P][贾玲2024万众期待票房必看]

[复制链接]

30万

主题

30万

帖子

30万

积分

超级版主

Rank: 8Rank: 8

积分
306576
发表于 2024-5-13 23:01:29 | 显示全部楼层 |阅读模式


[2024][大陆][剧情][BT下载][热辣滚烫][WebDL-MKV/4.56GB][国语][2160P][贾玲2024万众期待票房必看]

译  名 热辣滚烫/中国版百元之恋
片  名 Yolo
年  代 2024
国  家 中国
类  别 剧情/喜剧
语  言 汉语普通话
字  幕 中文硬字幕
评  分 7.8/10 from 687,917 users
链  接 https://movie.douban.com/subject/36081094
文件大小 4.56 GB
片  长 129 Min
导  演 贾玲 Ling Jia
主  演 贾玲 Ling Jia
     雷佳音 Jiayin Lei
     张小斐 Xiaofei Zhang
     杨紫 Andy Yang
     沙溢 Yi Sha
     乔杉 Shan Qiao
     李雪琴 Xueqin Li
     马丽 Li Ma
     魏翔 Xiang Wei
     赵海燕 Haiyan Zhao
     张琪 Qi Zhang
简介
  大学毕业后仅仅工作短暂的一段时间,杜乐莹(贾玲 饰)便退回家中,宅家长达十年之久。她无所事事,拒绝和外界做过多接触,甚至和家人的关系也变得紧张起来。在和离婚回到娘家的妹妹乐丹(张小斐 饰)一次激烈的冲突后,乐莹选择离家出走,并且在烧烤店找了服务员的工作勉强维生。爱情、亲情、人生,似乎一时间均跌入了谷底,而阴差阳错间乐莹又结识了落魄的拳击教练昊坤(雷佳音 饰)。她支持着他的梦想,彼此又不得不去面对残酷的现实。人生至暗时刻,随波逐流的女孩是否决心逆流而上?
  本片改编自日本电影《百元之恋》。
Video
Format         : HEVC
Format/Info      : High Efficiency Video Coding
Format profile     : Main 10 @ L5.1 @ Main
Codec ID       : V_MPEGH/ISO/HEVC
Duration       : 2 h 9 min
Bit rate       : 4 273 kb/s
Width        : 3 840 pixels
Height         : 1 616 pixels
Display aspect ratio   : 2.40:1
Frame rate mode      : Constant
Frame rate       : 60.000 FPS
Color space      : YUV
Chroma subsampling     : 4:2:0
Bit depth        : 10 bits
Bits/(Pixel*Frame)     : 0.011
Stream size      : 3.87 GiB (85%)
Color range      : Limited
Color primaries      : BT.709
Transfer characteristics   : BT.709
Matrix coefficients    : BT.709
Audio
Format         : E-AC-3 JOC
Format/Info      : Enhanced AC-3 with Joint Object Coding
Commercial name      : Dolby Digital Plus with Dolby Atmos
Codec ID       : A_EAC3
Duration       : 2 h 9 min
Bit rate mode      : Constant
Bit rate       : 768 kb/s
Channel(s)       : 6 channels
Channel layout     : L R C LFE Ls Rs
Sampling rate      : 48.0 kHz
Frame rate       : 31.250 FPS (1536 SPF)
Compression mode     : Lossy
Stream size      : 711 MiB (15%)
Service kind       : Complete Main
Complexity index     : 16
Number of dynamic objects  : 15
Bed channel count    : 1 channel
Bed channel configuration  : LFE






~~~~~~~~~~~~~~~~~~~~~~~~~~~~~~~~~~~~~~~~~
[2024][大陆][剧情][BT下载][热辣滚烫][WebDL-MKV/4.56GB][国语][2160P][贾玲2024万众期待票房必看]

【文件列表】:


热辣滚烫.中国版百元之恋.



【下载地址列表】:


游客
文件下载链接就在这里,在您回复评论成功后才能显示。
请勿回复无意义的灌水内容。


下拉页面到最底部回复或者【点击此处快捷回复】,回复后返回此处即可查看下载链接。
如您没注册本站会员,可以点击注册本站,注册后即可回复下载。



软字幕无法在截图上展现,HDR版本/杜比视界版本截图会出现颜色异常,请使用支持的设备播放!













(HDR版本/杜比视界版本,截图会出现颜色异常,请使用支持的设备播放)

小贴士:【影视自媒体解说文案请移步:夏至文案解说网 www.xiazhi.vip

上一篇:[2024][大陆][悬疑][纯净版][BT下载][疯狂绑架][WEB-MP4/8.82GB][国语配音/中文字幕][4K-2160P][H265编码][流媒体]
下一篇:[2024][美国][动作][BT下载][月球叛军2:烙印之人][WebDL-MKV/4.86GB][中字][1080P][扎导2024超视效]
回复

使用道具 举报

您需要登录后才可以回帖 登录 | 立即注册

本版积分规则

Archiver|手机版|小众纪录片影视聚合

GMT+8, 2024-5-21 06:32 , Processed in 0.066024 second(s), 16 queries , Gzip On, Redis On.

Powered by 小众纪录片影视聚合 @2010-2023

Copyright © 2010-2024, https://www.xzjlp.com/.


免责说明:本站所有内容链接、图文介绍等均来自于互联网网友分享,本站仅支持web页面展示和文字介绍,绝不提供在线观看和存储服务,也不参与录制、上传、压片。若本站收录内容无意侵犯贵司版权,请发邮件到【a885185#163.com】联系本站,我们将在第一时间删除侵权内容。谢谢!

快速回复 返回顶部 返回列表