小众纪录片影视聚合

 找回密码
 立即注册
查看: 5|回复: 0

[蓝光电影] [2023][大陆][犯罪][BT下载][热搜][WebDL-MKV/3.48GB][国语][2160P][中2023最新周冬雨主演剧情犯罪]

[复制链接]

30万

主题

30万

帖子

30万

积分

超级版主

Rank: 8Rank: 8

积分
306768
发表于 2024-5-13 23:01:40 | 显示全部楼层 |阅读模式


[2023][大陆][犯罪][BT下载][热搜][WebDL-MKV/3.48GB][国语][2160P][中2023最新周冬雨主演剧情犯罪]

译  名 热搜
片  名 Trending Topic
年  代 2023
国  家 中国
类  别 剧情/犯罪
语  言 汉语普通话/粤语
字  幕 中英硬字幕
评  分 6.1/10 from 34,252 users
链  接 https://movie.douban.com/subject/35498648
文件大小 3.48 GB
片  长 121 Min
导  演 忻钰坤 Yukun Xin
主  演 周冬雨 Dongyu Zhou
     宋洋 Yang Song
     袁弘 Hong Yuan
     王皓 Hao Wang
     陶海 Hai Tao
     石蕊 Rui Shi
     王硕 Shuo Wang
     米拉 Mi La
     张煜雯 Yuwen Zhang
     钟晨瑶 Chenyao Zhong
     师悦玲 Yueling Shi
简介
  热搜背后,真相究竟是什么?
  自媒体主编陈妙(周冬雨 饰)参透流量密码,打造爆款文章冲上热搜,却间接助推了当事人“霸凌者”女学生的跳楼。就在此时,陈妙意外发现女学生曾发来的求助信息,并牵扯出一桩性侵案。陈妙的合伙人何言(宋洋 饰),投资方富商岳鹏(袁弘 饰)陆续卷入其中。舆论多次转向,事件背后又隐藏着怎样的利益链条,一场为弱者发声的舆论战打响……
Video
Format         : HEVC
Format/Info      : High Efficiency Video Coding
Format profile     : Main @ L5.1 @ Main
Codec ID       : V_MPEGH/ISO/HEVC
Duration       : 2 h 1 min
Bit rate       : 3 855 kb/s
Width        : 3 840 pixels
Height         : 1 608 pixels
Display aspect ratio   : 2.40:1
Frame rate mode      : Constant
Frame rate       : 60.000 FPS
Color space      : YUV
Chroma subsampling     : 4:2:0
Bit depth        : 8 bits
Bits/(Pixel*Frame)     : 0.010
Stream size      : 3.26 GiB (94%)
Audio
Format         : E-AC-3
Format/Info      : Enhanced AC-3
Commercial name      : Dolby Digital Plus
Codec ID       : A_EAC3
Duration       : 2 h 1 min
Bit rate mode      : Constant
Bit rate       : 256 kb/s
Channel(s)       : 6 channels
Channel layout     : L R C LFE Ls Rs
Sampling rate      : 48.0 kHz
Frame rate       : 31.250 FPS (1536 SPF)
Compression mode     : Lossy
Stream size      : 222 MiB (6%)
Service kind       : Complete Main






~~~~~~~~~~~~~~~~~~~~~~~~~~~~~~~~~~~~~~~~~
[2023][大陆][犯罪][BT下载][热搜][WebDL-MKV/3.48GB][国语][2160P][中2023最新周冬雨主演剧情犯罪]

【文件列表】:


热搜.周冬雨2023新片.



【下载地址列表】:


游客
文件下载链接就在这里,在您回复评论成功后才能显示。
请勿回复无意义的灌水内容。


下拉页面到最底部回复或者【点击此处快捷回复】,回复后返回此处即可查看下载链接。
如您没注册本站会员,可以点击注册本站,注册后即可回复下载。



软字幕无法在截图上展现,HDR版本/杜比视界版本截图会出现颜色异常,请使用支持的设备播放!













(HDR版本/杜比视界版本,截图会出现颜色异常,请使用支持的设备播放)

小贴士:【影视自媒体解说文案请移步:夏至文案解说网 www.xiazhi.vip

上一篇:[2023][美国][动作][BT下载][伸冤人3][BD-MKV/9.69GB][中字][1080P][丹泽尔华盛顿2023硬汉动作]
下一篇:[2023][美国][奇幻][BT下载][芭比][BD-MKV/9.83GB][双语][1080P][美国2023高分奇幻全球票房第一]
回复

使用道具 举报

您需要登录后才可以回帖 登录 | 立即注册

本版积分规则

Archiver|手机版|小众纪录片影视聚合

GMT+8, 2024-5-21 06:49 , Processed in 0.067834 second(s), 16 queries , Gzip On, Redis On.

Powered by 小众纪录片影视聚合 @2010-2023

Copyright © 2010-2024, https://www.xzjlp.com/.


免责说明:本站所有内容链接、图文介绍等均来自于互联网网友分享,本站仅支持web页面展示和文字介绍,绝不提供在线观看和存储服务,也不参与录制、上传、压片。若本站收录内容无意侵犯贵司版权,请发邮件到【a885185#163.com】联系本站,我们将在第一时间删除侵权内容。谢谢!

快速回复 返回顶部 返回列表