小众纪录片影视聚合

 找回密码
 立即注册
查看: 6|回复: 0

[蓝光电影] [2023][大陆][犯罪][BT下载][沉默笔录][WebDL-MKV/2.94GB][国语][2160P][中国2023章宇最新悬疑犯罪]

[复制链接]

30万

主题

30万

帖子

30万

积分

超级版主

Rank: 8Rank: 8

积分
306697
发表于 2024-5-13 23:05:28 | 显示全部楼层 |阅读模式


[2023][大陆][犯罪][BT下载][沉默笔录][WebDL-MKV/2.94GB][国语][2160P][中国2023章宇最新悬疑犯罪]

译  名 沉默笔录/野犬笔录
片  名 Record Without Words
年  代 2023
国  家 中国
类  别 剧情/悬疑/犯罪
语  言 汉语普通话/贵州方言
字  幕 中英硬字幕
评  分 6.8/10 from 6,351 users
链  接 https://movie.douban.com/subject/30396283
文件大小 2.94 GB
片  长 91 Min
导  演 郝飞环 Feihuan Hao
主  演 章宇 Yu Zhang
     马吟吟 Yinyin Ma
     孙敏 Min Sun
     楚布花羯 ChoBu HuaJe
     谭天 Tian Tan
     钟波 Bo Zhong
     董凡 Fan Dong
简介
  平西镇位于西南某地,90年代乡镇治安由联防队维护,联防队长李立忠(章宇 饰)的父亲意外死亡,与此同时镇里发生诡异的连环杀狗案,李立忠带领队员通过蹩脚的探案手法进行调查,通过一系列荒诞行动,李立忠发现杀狗案竟与父亲的死亡有千丝万缕的关系。在那个野蛮生长的时代下,面对真相的李立忠只能以沉默作答。
Video
Format         : HEVC
Format/Info      : High Efficiency Video Coding
Format profile     : Main @ L5.1 @ Main
Codec ID       : V_MPEGH/ISO/HEVC
Duration       : 1 h 31 min
Bit rate       : 4 350 kb/s
Width        : 3 840 pixels
Height         : 1 712 pixels
Display aspect ratio   : 2.25:1
Frame rate mode      : Constant
Frame rate       : 60.000 FPS
Color space      : YUV
Chroma subsampling     : 4:2:0
Bit depth        : 8 bits
Bits/(Pixel*Frame)     : 0.011
Stream size      : 2.78 GiB (94%)
Audio
Format         : E-AC-3
Format/Info      : Enhanced AC-3
Commercial name      : Dolby Digital Plus
Codec ID       : A_EAC3
Duration       : 1 h 31 min
Bit rate mode      : Constant
Bit rate       : 256 kb/s
Channel(s)       : 6 channels
Channel layout     : L R C LFE Ls Rs
Sampling rate      : 48.0 kHz
Frame rate       : 31.250 FPS (1536 SPF)
Compression mode     : Lossy
Stream size      : 168 MiB (6%)
Service kind       : Complete Main






~~~~~~~~~~~~~~~~~~~~~~~~~~~~~~~~~~~~~~~~~
[2023][大陆][犯罪][BT下载][沉默笔录][WebDL-MKV/2.94GB][国语][2160P][中国2023章宇最新悬疑犯罪]

【文件列表】:


沉默笔录.野犬笔录.



【下载地址列表】:


游客
文件下载链接就在这里,在您回复评论成功后才能显示。
请勿回复无意义的灌水内容。


下拉页面到最底部回复或者【点击此处快捷回复】,回复后返回此处即可查看下载链接。
如您没注册本站会员,可以点击注册本站,注册后即可回复下载。



软字幕无法在截图上展现,HDR版本/杜比视界版本截图会出现颜色异常,请使用支持的设备播放!













(HDR版本/杜比视界版本,截图会出现颜色异常,请使用支持的设备播放)

小贴士:【影视自媒体解说文案请移步:夏至文案解说网 www.xiazhi.vip

上一篇:[2023][美国][悬疑][BT下载][威尼斯惊魂夜][BD-MKV/9.51GB][中英][1080P][美2023新悬疑惊悚大片]
下一篇:[2023][大陆][喜剧][BT下载][宇宙探索编辑部][BD-MKV/10.4GB][国语][1080P][中2023高分喜剧科幻]
回复

使用道具 举报

您需要登录后才可以回帖 登录 | 立即注册

本版积分规则

Archiver|手机版|小众纪录片影视聚合

GMT+8, 2024-5-21 06:43 , Processed in 0.063359 second(s), 13 queries , Gzip On, Redis On.

Powered by 小众纪录片影视聚合 @2010-2023

Copyright © 2010-2024, https://www.xzjlp.com/.


免责说明:本站所有内容链接、图文介绍等均来自于互联网网友分享,本站仅支持web页面展示和文字介绍,绝不提供在线观看和存储服务,也不参与录制、上传、压片。若本站收录内容无意侵犯贵司版权,请发邮件到【a885185#163.com】联系本站,我们将在第一时间删除侵权内容。谢谢!

快速回复 返回顶部 返回列表