小众纪录片影视聚合

 找回密码
 立即注册
查看: 10|回复: 0

[蓝光电影] [2019][其它][奇幻][BD-1080P]天堂山[中文字幕].Paradise.Hills.2019.BluRay.1080p.TrueHD.5.1.x264- 12.57GB

[复制链接]

116万

主题

116万

帖子

116万

积分

超级版主

Rank: 8Rank: 8

积分
1167997
发表于 2024-7-9 21:05:11 | 显示全部楼层 |阅读模式


[2019][其它][奇幻][BD-1080P]天堂山[中文字幕].Paradise.Hills.2019.BluRay.1080p.TrueHD.5.1.x264- 12.57GB

完整标题:天堂山[中文字幕].Paradise.Hills.2019.BluRay.1080p.TrueHD.5.1.x264-DreamHD 12.57GB
◎标  题 天堂山
◎译  名 天堂山庄(港) / 逃出天堂岛(台)
◎片  名 Paradise Hills
◎年  代 2019
◎产  地 西班牙
◎类  别 奇幻
◎语  言 英语
◎上映日期 2019-01-26(圣丹斯电影节) / 2019-11-01(美国)
◎IMDb评分 5.2/10 (16729人评价)
◎IMDb链接 https://www.imdb.com/title/tt6127004/
◎豆瓣评分 5.4/10 (4618人评价)
◎豆瓣链接 https://movie.douban.com/subject/27187828/
◎片  长 95分钟(圣丹斯电影节)
◎导  演 爱丽丝·沃丁顿 Alice Waddington
◎编  剧 爱丽丝·沃丁顿 Alice Waddington
       那奇欧·维加隆多 Nacho Vigalondo
       布莱恩·德鲁 Brian DeLeeuw
◎演  员 艾玛·罗伯茨 Emma Roberts
       艾莎·冈萨雷斯 Eiza González
       米拉·乔沃维奇 Milla Jovovich
       丹妮尔·麦克唐纳 Danielle Macdonald
       奥卡菲娜 Awkwafina
       杰瑞米·艾文 Jeremy Irvine
       阿诺德·瓦卢瓦 Arnaud Valois
       亨特·特里梅恩 Hunter Tremayne
       丹尼尔·霍瓦斯 Daniel Horvath
       茱莉娅·斯椎森-路透·拉米雷兹 Julia Stresen-Reuter Ramírez
       盖莉·巴特维莱特 Gaile Butvilayte
◎简  介
    少女奥玛(艾玛·罗伯茨 Emma Roberts 饰)是一位个性非常鲜明的勇敢少女,一天,当她醒来时,发现自己竟然来到了一座名为“天堂山”的孤岛上,在这里,矗立着一座疗养院,生活在其中的是从世界各地被送来的千金小姐们,他们的父母希望他们能够在这里学习如何成为一个完美的女人。                                    公爵夫人(米拉·乔沃维奇 Milla Jovovich 饰)是这里的统治者,女孩子们在对她无比崇拜的同时,也心怀恐惧。在这里,奥玛邂逅了艾玛那(艾莎·冈萨雷斯 Eiza González 饰)、雨(奥卡菲娜 Awkwafina 饰)和克洛伊(达尼埃尔·麦克唐纳 Danielle Macdonald 饰)等人,很快他们就发现了隐藏在这所疗养院背后黑暗而又肮脏的秘密。
点击图片可查看大图
软字幕无法在截图上展现,HDR版本/杜比视界版本截图会出现颜色异常,请使用支持的设备播放!
##### MediaInfo ######
General
Unique ID                                : 39191051170630963957952845768447207166 (0x1D7BEC01A5FF92B68561E3E7CCBBA6FE)
Complete name                            : Paradise.Hills.2019.BluRay.1080p.TrueHD.5.1.x264-DreamHD.mkv
Duration                                 : 1 h 34 min
Overall bit rate mode                    : Variable
Overall bit rate                         : 19.0 Mb/s
Video
ID                                       : 1
Format                                   : AVC
Format/Info                              : Advanced Video Codec
Format profile                           : [email protected]
Format settings                          : CABAC / 4 Ref Frames
Format settings, CABAC                   : Yes
Format settings, Reference frames        : 4 frames
Codec ID                                 : V_MPEG4/ISO/AVC
Duration                                 : 1 h 34 min
Bit rate                                 : 16.2 Mb/s
Width                                    : 1 920 pixels
Height                                   : 960 pixels
Display aspect ratio                     : 2.000
Frame rate mode                          : Constant
Frame rate                               : 23.976 (24000/1001) FPS
Color space                              : YUV
Chroma subsampling                       : 4:2:0
Bit depth                                : 8 bits
Scan type                                : Progressive
Bits/(Pixel*Frame)                       : 0.366
Stream size                              : 10.7 GiB (85%)
Writing library                          : x264 core 157 r2970+47 cae74a0 t_mod_New [0-bit@all X86]
Encoding settings                        : cabac=1 / ref=4 / deblock=1:-3:-3 / analyse=0x3:0x133 / me=umh / subme=11 / psy=1 / fade_compensate=0.00 / psy_rd=0.95:0.10 / mixed_ref=1 / me_range=48 / chroma_me=1 / trellis=2 / 8x8dct=1 / cqm=0 / deadzone=21,11 / fast_pskip=0 / chroma_qp_offset=-4 / threads=24 / lookahead_threads=4 / sliced_threads=0 / nr=0 / decimate=1 / interlaced=0 / bluray_compat=0 / constrained_intra=0 / fgo=0 / bframes=8 / b_pyramid=2 / b_adapt=2 / b_bias=0 / direct=3 / weightb=1 / open_gop=0 / weightp=2 / keyint=250 / keyint_min=23 / scenecut=40 / intra_refresh=0 / rc_lookahead=60 / rc=crf / mbtree=0 / crf=18.0000 / qcomp=0.70 / qpmin=0:0:0 / qpmax=69:69:69 / qpstep=4 / vbv_maxrate=35000 / vbv_bufsize=35000 / crf_max=0.0 / nal_hrd=none / filler=0 / ip_ratio=1.40 / pb_ratio=1.30 / aq=3:1.00 / aq-sensitivity=10.00 / aq-factor=1.00:1.00:1.00 / aq2=0 / aq3=0
Language                                 : Spanish
Default                                  : Yes
Forced                                   : No
Audio
ID                                       : 2
Format                                   : MLP FBA
Format/Info                              : Meridian Lossless Packing FBA
Commercial name                          : Dolby TrueHD
Codec ID                                 : A_TRUEHD
Duration                                 : 1 h 34 min
Bit rate mode                            : Variable
Bit rate                                 : 2 754 kb/s
Maximum bit rate                         : 4 710 kb/s
Channel(s)                               : 6 channels
Channel layout                           : L R C LFE Ls Rs
Sampling rate                            : 96.0 kHz
Frame rate                               : 1 200.000 FPS (80 SPF)
Compression mode                         : Lossless
Stream size                              : 1.82 GiB (14%)
Language                                 : English
Default                                  : Yes
Forced                                   : No
Text #1
ID                                       : 3
Format                                   : PGS
Muxing mode                              : zlib
Codec ID                                 : S_HDMV/PGS
Codec ID/Info                            : Picture based subtitle format used on BDs/HD-DVDs
Duration                                 : 1 h 28 min
Bit rate                                 : 20.9 kb/s
Frame rate                               : 0.458 FPS
Count of elements                        : 2447
Stream size                              : 13.3 MiB (0%)
Language                                 : Chinese
Default                                  : Yes
Forced                                   : No
Text #2
ID                                       : 4
Format                                   : PGS
Muxing mode                              : zlib
Codec ID                                 : S_HDMV/PGS
Codec ID/Info                            : Picture based subtitle format used on BDs/HD-DVDs
Duration                                 : 1 h 28 min
Bit rate                                 : 35.1 kb/s
Frame rate                               : 0.458 FPS
Count of elements                        : 2447
Stream size                              : 22.3 MiB (0%)
Language                                 : Chinese
Default                                  : No
Forced                                   : No
Menu
00:00:00.000                             : es:Chapter 01
00:08:12.117                             : es:Chapter 02
00:15:35.017                             : es:Chapter 03
00:24:04.610                             : es:Chapter 04
00:31:03.028                             : es:Chapter 05
00:39:12.600                             : es:Chapter 06
00:46:48.806                             : es:Chapter 07
00:56:15.706                             : es:Chapter 08
01:03:43.945                             : es:Chapter 09
01:09:15.568                             : es:Chapter 10
01:16:38.677                             : es:Chapter 11
01:25:29.958                             : es:Chapter 12
部分资源为软字幕,移动端推荐播放器:MxPlayer,nPlayer,infuse ,其他播放器请自行尝试。
部分资源为软字幕,电脑端推荐播放器:PotPlayer,完美解码,KMPLAYER,其他播放器请自行尝试。






~~~~~~~~~~~~~~~~~~~~~~~~~~~~~~~~~~~~~~~~~
[2019][其它][奇幻][BD-1080P]天堂山[中文字幕].Paradise.Hills.2019.BluRay.1080p.TrueHD.5.1.x264- 12.57GB

【文件列表】:


Paradise.Hills.2019.BluRay.1080p.TrueHD.5.1.x264-DreamHD.



【下载地址列表】:


游客
文件下载链接就在这里,在您回复评论成功后才能显示。
请勿回复无意义的灌水内容。


下拉页面到最底部回复或者【点击此处快捷回复】,回复后返回此处即可查看下载链接。
如您没注册本站会员,可以点击注册本站,注册后即可回复下载。



软字幕无法在截图上展现,HDR版本/杜比视界版本截图会出现颜色异常,请使用支持的设备播放!






[img][/img]






[img][/img]

(HDR版本/杜比视界版本,截图会出现颜色异常,请使用支持的设备播放)

小贴士:【影视自媒体解说文案请移步:夏至文案解说网 www.xiazhi.vip

上一篇:[2017][台湾][剧情][BD-1080P]大佛普拉斯[国语配音/中文字幕].The.Great.Buddha/.2017.Bluray.1080p.AAC2.0.x264- 3.03GB
下一篇:[2014][台湾][剧情][BD-1080P]军中乐园[国语音轨/简繁英字幕].Paradise.in.Service.2014.BluRay.1080p.TrueHD.5.1.x264- 1
回复

使用道具 举报

您需要登录后才可以回帖 登录 | 立即注册

本版积分规则

Archiver|手机版|小众纪录片影视聚合

GMT+8, 2024-7-25 02:26 , Processed in 0.196968 second(s), 13 queries , Gzip On, Redis On.

Powered by 小众纪录片影视聚合 @2010-2023

Copyright © 2010-2024, https://www.xzjlp.com/.


免责说明:本站所有内容链接、图文介绍等均来自于互联网网友分享,本站仅支持web页面展示和文字介绍,绝不提供在线观看和存储服务,也不参与录制、上传、压片。若本站收录内容无意侵犯贵司版权,请发邮件到【a885185#163.com】联系本站,我们将在第一时间删除侵权内容。谢谢!

快速回复 返回顶部 返回列表