小众纪录片影视聚合

 找回密码
 立即注册
查看: 9|回复: 0

[蓝光电影] [2021][其它][惊悚][BD-1080P]A计划[中文字幕].Plan.A.2021.BluRay.REMUX.1080p.AVC.DTS-HD.MA5.1- 18.61GB

[复制链接]

112万

主题

112万

帖子

112万

积分

超级版主

Rank: 8Rank: 8

积分
1128817
发表于 2024-7-9 21:05:52 | 显示全部楼层 |阅读模式


[2021][其它][惊悚][BD-1080P]A计划[中文字幕].Plan.A.2021.BluRay.REMUX.1080p.AVC.DTS-HD.MA5.1- 18.61GB

完整标题:A计划[中文字幕].Plan.A.2021.BluRay.REMUX.1080p.AVC.DTS-HD.MA5.1-DreamHD 18.61GB
◎标  题 A计划
◎片  名 Plan A
◎年  代 2021
◎产  地 德国 / 以色列
◎类  别 惊悚 / 战争
◎语  言 英语
◎上映日期 2021-07-23(日本)
◎IMDb评分 5.8/10 (1061人评价)
◎IMDb链接 https://www.imdb.com/title/tt5448338/
◎豆瓣评分 5.8/10 (188人评价)
◎豆瓣链接 https://movie.douban.com/subject/33447874/
◎片  长 110分钟
◎导  演 多温·普兹 Doron Paz
       约亚夫·普兹 Yoav Paz
◎编  剧 多温·普兹 Doron Paz
       约亚夫·普兹 Yoav Paz
◎演  员 奥古斯特·迪赫 August Diehl
       西尔维娅·侯克斯 Sylvia Hoeks
       安妮·施瓦茨 Aenne Schwarz
◎简  介
    本片由以色列兄弟导演Doron Paz、Yoav Paz([傀儡])执导,根据真实故事改编,讲述1945年一群在大屠杀中幸存下来犹太人计划通过毒害德国的供水系统来报复纳粹。这次大胆的秘密行动被称为A计划。
点击图片可查看大图
软字幕无法在截图上展现,HDR版本/杜比视界版本截图会出现颜色异常,请使用支持的设备播放!
##### MediaInfo ######
General
Unique ID                                : 57091070760933292875494029987505224119 (0x2AF3571C2B090C8BF82E3B6F0FEFB9B7)
Complete name                            : Plan.A.2021.BluRay.REMUX.1080p.AVC.DTS-HD.MA5.1-DreamHD.mkv
Duration                                 : 1 h 49 min
Overall bit rate mode                    : Variable
Overall bit rate                         : 24.2 Mb/s
Video
ID                                       : 1
ID in the original source medium         : 4113 (0x1011)
Format                                   : AVC
Format/Info                              : Advanced Video Codec
Format profile                           : [email protected]
Format settings                          : CABAC / 4 Ref Frames
Format settings, CABAC                   : Yes
Format settings, Reference frames        : 4 frames
Codec ID                                 : V_MPEG4/ISO/AVC
Duration                                 : 1 h 49 min
Bit rate mode                            : Variable
Bit rate                                 : 22.4 Mb/s
Maximum bit rate                         : 34.0 Mb/s
Width                                    : 1 920 pixels
Height                                   : 1 080 pixels
Display aspect ratio                     : 16:9
Frame rate mode                          : Constant
Frame rate                               : 23.976 (24000/1001) FPS
Color space                              : YUV
Chroma subsampling                       : 4:2:0
Bit depth                                : 8 bits
Scan type                                : Progressive
Bits/(Pixel*Frame)                       : 0.450
Stream size                              : 17.2 GiB (92%)
Language                                 : English
Default                                  : No
Forced                                   : No
Original source medium                   : Blu-ray
Audio
ID                                       : 2
ID in the original source medium         : 4352 (0x1100)
Format                                   : DTS XLL
Format/Info                              : Digital Theater Systems
Commercial name                          : DTS-HD Master Audio
Codec ID                                 : A_DTS
Duration                                 : 1 h 49 min
Bit rate mode                            : Variable
Bit rate                                 : 1 762 kb/s
Channel(s)                               : 6 channels
Channel layout                           : C L R Ls Rs LFE
Sampling rate                            : 48.0 kHz
Frame rate                               : 93.750 FPS (512 SPF)
Bit depth                                : 16 bits
Compression mode                         : Lossless
Stream size                              : 1.35 GiB (7%)
Title                                    : 环绕声 5.1
Language                                 : English
Default                                  : Yes
Forced                                   : No
Original source medium                   : Blu-ray
Text #1
ID                                       : 3
ID in the original source medium         : 4608 (0x1200)
Format                                   : PGS
Codec ID                                 : S_HDMV/PGS
Codec ID/Info                            : Picture based subtitle format used on BDs/HD-DVDs
Duration                                 : 1 h 49 min
Bit rate                                 : 19.5 kb/s
Frame rate                               : 0.330 FPS
Count of elements                        : 2160
Stream size                              : 15.2 MiB (0%)
Language                                 : English
Default                                  : Yes
Forced                                   : No
Original source medium                   : Blu-ray
Text #2
ID                                       : 4
ID in the original source medium         : 4609 (0x1201)
Format                                   : PGS
Codec ID                                 : S_HDMV/PGS
Codec ID/Info                            : Picture based subtitle format used on BDs/HD-DVDs
Duration                                 : 1 h 42 min
Bit rate                                 : 16.2 kb/s
Frame rate                               : 0.256 FPS
Count of elements                        : 1565
Stream size                              : 11.8 MiB (0%)
Language                                 : Chinese
Default                                  : No
Forced                                   : No
Original source medium                   : Blu-ray
Text #3
ID                                       : 5
ID in the original source medium         : 4610 (0x1202)
Format                                   : PGS
Codec ID                                 : S_HDMV/PGS
Codec ID/Info                            : Picture based subtitle format used on BDs/HD-DVDs
Duration                                 : 1 h 42 min
Bit rate                                 : 16.7 kb/s
Frame rate                               : 0.256 FPS
Count of elements                        : 1565
Stream size                              : 12.2 MiB (0%)
Language                                 : Chinese
Default                                  : No
Forced                                   : No
Original source medium                   : Blu-ray
Text #4
ID                                       : 6
ID in the original source medium         : 4611 (0x1203)
Format                                   : PGS
Codec ID                                 : S_HDMV/PGS
Codec ID/Info                            : Picture based subtitle format used on BDs/HD-DVDs
Duration                                 : 1 h 42 min
Bit rate                                 : 27.1 kb/s
Frame rate                               : 0.256 FPS
Count of elements                        : 1565
Stream size                              : 19.7 MiB (0%)
Language                                 : Chinese
Default                                  : No
Forced                                   : No
Original source medium                   : Blu-ray
Text #5
ID                                       : 7
ID in the original source medium         : 4612 (0x1204)
Format                                   : PGS
Codec ID                                 : S_HDMV/PGS
Codec ID/Info                            : Picture based subtitle format used on BDs/HD-DVDs
Duration                                 : 1 h 42 min
Bit rate                                 : 27.5 kb/s
Frame rate                               : 0.256 FPS
Count of elements                        : 1565
Stream size                              : 20.1 MiB (0%)
Language                                 : Chinese
Default                                  : No
Forced                                   : No
Original source medium                   : Blu-ray
Menu
00:00:00.000                             : en:Chapter 01
00:10:29.003                             : en:Chapter 02
00:19:37.384                             : en:Chapter 03
00:27:32.984                             : en:Chapter 04
00:36:50.583                             : en:Chapter 05
00:47:43.652                             : en:Chapter 06
00:58:19.996                             : en:Chapter 07
01:08:03.871                             : en:Chapter 08
01:21:07.737                             : en:Chapter 09
01:34:26.661                             : en:Chapter 10
01:42:52.499                             : en:Chapter 11
部分资源为软字幕,移动端推荐播放器:MxPlayer,nPlayer,infuse ,其他播放器请自行尝试。
部分资源为软字幕,电脑端推荐播放器:PotPlayer,完美解码,KMPLAYER,其他播放器请自行尝试。






~~~~~~~~~~~~~~~~~~~~~~~~~~~~~~~~~~~~~~~~~
[2021][其它][惊悚][BD-1080P]A计划[中文字幕].Plan.A.2021.BluRay.REMUX.1080p.AVC.DTS-HD.MA5.1- 18.61GB

【文件列表】:


Plan.A.2021.BluRay.REMUX.1080p.AVC.DTS-HD.MA5.1-DreamHD.



【下载地址列表】:


游客
文件下载链接就在这里,在您回复评论成功后才能显示。
请勿回复无意义的灌水内容。


下拉页面到最底部回复或者【点击此处快捷回复】,回复后返回此处即可查看下载链接。
如您没注册本站会员,可以点击注册本站,注册后即可回复下载。



软字幕无法在截图上展现,HDR版本/杜比视界版本截图会出现颜色异常,请使用支持的设备播放!






[img][/img]






[img][/img]

(HDR版本/杜比视界版本,截图会出现颜色异常,请使用支持的设备播放)

小贴士:【影视自媒体解说文案请移步:夏至文案解说网 www.xiazhi.vip

上一篇:[2018][欧美][惊悚][BD-1080P]刺透[中文字幕].Piercing.2018.BluRay.1080p.DD5.1.x264- 6.90GB
下一篇:[2021][其它][惊悚][BD-1080P]A计划[中文字幕].Plan.A.2021.BluRay.1080p.DTS-HDMA5.1.x264- 11.70GB
回复

使用道具 举报

您需要登录后才可以回帖 登录 | 立即注册

本版积分规则

Archiver|手机版|小众纪录片影视聚合

GMT+8, 2024-7-17 00:15 , Processed in 0.279601 second(s), 13 queries , Gzip On, Redis On.

Powered by 小众纪录片影视聚合 @2010-2023

Copyright © 2010-2024, https://www.xzjlp.com/.


免责说明:本站所有内容链接、图文介绍等均来自于互联网网友分享,本站仅支持web页面展示和文字介绍,绝不提供在线观看和存储服务,也不参与录制、上传、压片。若本站收录内容无意侵犯贵司版权,请发邮件到【a885185#163.com】联系本站,我们将在第一时间删除侵权内容。谢谢!

快速回复 返回顶部 返回列表