小众纪录片影视聚合

 找回密码
 立即注册
查看: 3|回复: 0

[蓝光电影] [2021][日本][动画][BD-1080P]酷爱电影的庞波小姐[国日多音轨/中英字幕].Pompo.The.Cinephile.2021.Bluray.1080p.TrueHD5.1.x264-Dream

[复制链接]

113万

主题

113万

帖子

113万

积分

超级版主

Rank: 8Rank: 8

积分
1134020
发表于 2024-7-9 21:06:23 | 显示全部楼层 |阅读模式


[2021][日本][动画][BD-1080P]酷爱电影的庞波小姐[国日多音轨/中英字幕].Pompo.The.Cinephile.2021.Bluray.1080p.TrueHD5.1.x264-Dream

完整标题:酷爱电影的庞波小姐[国日多音轨/中英字幕].Pompo.The.Cinephile.2021.Bluray.1080p.TrueHD5.1.x264-DreamHD 12.86GB
◎标  题 酷爱电影的庞波小姐
◎译  名 Pompo: The Cinéphile / Eiga daisuki Pompo-san / 最喜欢电影的彭波小姐
◎片  名 映画大好きポンポさん
◎年  代 2021
◎产  地 日本
◎类  别 动画
◎语  言 日语
◎上映日期 2021-06-04(日本) / 2021-06-15(上海国际电影节)
◎IMDb评分 7.2/10 (804人评价)
◎IMDb链接 https://www.imdb.com/title/tt12439248/
◎豆瓣链接 https://movie.douban.com/subject/30037194/
◎片  长 94分钟
◎简  介
    庞波小姐是干练的电影制作人。                                    她能看出演员及工作人员的潜力,让他们发挥十二成才华,简直可谓大萤幕之子。                                    尽管她日夜都在电影之城喵莱坞用心制片,拍的却尽是B级卖肉动作片……                                    担任其助手的青年「电影痴」吉恩对此有疑问,而庞波小姐亲手策画的脚本                                    就在某天交到了他手上。而且,导演还吩咐:「这部片子要交给你拍。」                                    吉恩能拍出庞波小姐所说的「名作」吗。
点击图片可查看大图
软字幕无法在截图上展现,HDR版本/杜比视界版本截图会出现颜色异常,请使用支持的设备播放!
##### MediaInfo ######
General
Unique ID                                : 244053956389183741378475351061805315600 (0xB79B150F5BEAE8CFAE95D1CBDC4AB610)
Complete name                            : Pompo.The.Cinephile.2021.Bluray.1080p.TrueHD5.1.x264-DreamHD.mkv
Duration                                 : 1 h 34 min
Overall bit rate mode                    : Variable
Overall bit rate                         : 19.5 Mb/s
Video
ID                                       : 1
Format                                   : AVC
Format/Info                              : Advanced Video Codec
Format profile                           : [email protected]
Format settings                          : CABAC / 4 Ref Frames
Format settings, CABAC                   : Yes
Format settings, Reference frames        : 4 frames
Codec ID                                 : V_MPEG4/ISO/AVC
Duration                                 : 1 h 34 min
Bit rate                                 : 13.5 Mb/s
Width                                    : 1 920 pixels
Height                                   : 1 040 pixels
Display aspect ratio                     : 1.85:1
Frame rate mode                          : Constant
Frame rate                               : 23.976 (24000/1001) FPS
Color space                              : YUV
Chroma subsampling                       : 4:2:0
Bit depth                                : 8 bits
Scan type                                : Progressive
Bits/(Pixel*Frame)                       : 0.282
Stream size                              : 8.91 GiB (69%)
Writing library                          : x264 core 157 r2867+150 7e91e0e t_mod_Custom_2 [8-bit@all X86_64]
Encoding settings                        : cabac=1 / ref=4 / deblock=1:-3:-3 / analyse=0x3:0x133 / me=umh / subme=11 / psy=1 / fade_compensate=0.00 / psy_rd=0.90:0.10 / mixed_ref=1 / me_range=64 / chroma_me=1 / trellis=2 / 8x8dct=1 / cqm=0 / deadzone=21,11 / fast_pskip=0 / chroma_qp_offset=-4 / threads=32 / lookahead_threads=5 / sliced_threads=0 / nr=0 / decimate=1 / interlaced=0 / bluray_compat=0 / constrained_intra=0 / fgo=0 / bframes=8 / b_pyramid=2 / b_adapt=2 / b_bias=0 / direct=3 / weightb=1 / open_gop=0 / weightp=2 / keyint=250 / keyint_min=23 / scenecut=40 / intra_refresh=0 / rc_lookahead=60 / rc=crf / mbtree=0 / crf=13.5000 / qcomp=0.70 / qpmin=0:0:0 / qpmax=69:69:69 / qpstep=4 / vbv_maxrate=35000 / vbv_bufsize=35000 / crf_max=0.0 / nal_hrd=none / filler=0 / ip_ratio=1.40 / pb_ratio=1.30 / aq=3:1.00 / aq-sensitivity=10.00 / aq-factor=1.00:1.00:1.00 / aq2=0 / aq3=0
Language                                 : Chinese
Default                                  : Yes
Forced                                   : No
Audio #1
ID                                       : 2
Format                                   : MLP FBA
Format/Info                              : Meridian Lossless Packing FBA
Commercial name                          : Dolby TrueHD
Codec ID                                 : A_TRUEHD
Duration                                 : 1 h 34 min
Bit rate mode                            : Variable
Bit rate                                 : 2 881 kb/s
Maximum bit rate                         : 4 776 kb/s
Channel(s)                               : 6 channels
Channel layout                           : L R C LFE Ls Rs
Sampling rate                            : 96.0 kHz
Frame rate                               : 1 200.000 FPS (80 SPF)
Compression mode                         : Lossless
Stream size                              : 1.90 GiB (15%)
Language                                 : Japanese
Default                                  : Yes
Forced                                   : No
Audio #2
ID                                       : 3
Format                                   : MLP FBA
Format/Info                              : Meridian Lossless Packing FBA
Commercial name                          : Dolby TrueHD
Codec ID                                 : A_TRUEHD
Duration                                 : 1 h 34 min
Bit rate mode                            : Variable
Bit rate                                 : 2 921 kb/s
Maximum bit rate                         : 4 836 kb/s
Channel(s)                               : 6 channels
Channel layout                           : L R C LFE Ls Rs
Sampling rate                            : 96.0 kHz
Frame rate                               : 1 200.000 FPS (80 SPF)
Compression mode                         : Lossless
Stream size                              : 1.93 GiB (15%)
Language                                 : Chinese
Default                                  : Yes
Forced                                   : No
Text #1
ID                                       : 4
Format                                   : PGS
Muxing mode                              : zlib
Codec ID                                 : S_HDMV/PGS
Codec ID/Info                            : Picture based subtitle format used on BDs/HD-DVDs
Duration                                 : 1 h 30 min
Bit rate                                 : 36.6 kb/s
Frame rate                               : 0.420 FPS
Count of elements                        : 2274
Stream size                              : 23.6 MiB (0%)
Language                                 : Chinese
Default                                  : Yes
Forced                                   : No
Text #2
ID                                       : 5
Format                                   : PGS
Muxing mode                              : zlib
Codec ID                                 : S_HDMV/PGS
Codec ID/Info                            : Picture based subtitle format used on BDs/HD-DVDs
Duration                                 : 1 h 30 min
Bit rate                                 : 39.2 kb/s
Frame rate                               : 0.420 FPS
Count of elements                        : 2274
Stream size                              : 25.3 MiB (0%)
Language                                 : Chinese
Default                                  : Yes
Forced                                   : No
Text #3
ID                                       : 6
Format                                   : PGS
Muxing mode                              : zlib
Codec ID                                 : S_HDMV/PGS
Codec ID/Info                            : Picture based subtitle format used on BDs/HD-DVDs
Duration                                 : 1 h 30 min
Bit rate                                 : 32.7 kb/s
Frame rate                               : 0.405 FPS
Count of elements                        : 2194
Stream size                              : 21.1 MiB (0%)
Language                                 : English
Default                                  : Yes
Forced                                   : No
Menu
00:00:00.000                             : en:第 01 章
00:09:31.833                             : en:第 02 章
00:20:07.500                             : en:第 03 章
00:26:50.750                             : en:第 04 章
00:33:38.167                             : en:第 05 章
00:41:05.208                             : en:第 06 章
00:46:21.042                             : en:第 07 章
00:56:05.000                             : en:第 08 章
01:03:27.333                             : en:第 09 章
01:17:55.333                             : en:第 10 章
01:24:48.083                             : en:第 11 章
01:33:37.625                             : en:第 12 章
部分资源为软字幕,移动端推荐播放器:MxPlayer,nPlayer,infuse ,其他播放器请自行尝试。
部分资源为软字幕,电脑端推荐播放器:PotPlayer,完美解码,KMPLAYER,其他播放器请自行尝试。






~~~~~~~~~~~~~~~~~~~~~~~~~~~~~~~~~~~~~~~~~
[2021][日本][动画][BD-1080P]酷爱电影的庞波小姐[国日多音轨/中英字幕].Pompo.The.Cinephile.2021.Bluray.1080p.TrueHD5.1.x264-Dream

【文件列表】:


Pompo.The.Cinephile.2021.Bluray.1080p.TrueHD5.1.x264-DreamHD.



【下载地址列表】:


游客
文件下载链接就在这里,在您回复评论成功后才能显示。
请勿回复无意义的灌水内容。


下拉页面到最底部回复或者【点击此处快捷回复】,回复后返回此处即可查看下载链接。
如您没注册本站会员,可以点击注册本站,注册后即可回复下载。



软字幕无法在截图上展现,HDR版本/杜比视界版本截图会出现颜色异常,请使用支持的设备播放!






[img][/img]






[img][/img]

(HDR版本/杜比视界版本,截图会出现颜色异常,请使用支持的设备播放)

小贴士:【影视自媒体解说文案请移步:夏至文案解说网 www.xiazhi.vip

上一篇:[2019][其它][剧情][BD-1080P]拍栗得[中文字幕].Polaroid.2019.BluRay.1080p.DTS-HD.MA.5.1.x264- 13.52GB
下一篇:[更 早][其它][剧情][BD-1080P]灰烬[中文字幕].Popioly.1965.BluRay.1080p.DD.2.0.x264- 14.92GB
回复

使用道具 举报

您需要登录后才可以回帖 登录 | 立即注册

本版积分规则

Archiver|手机版|小众纪录片影视聚合

GMT+8, 2024-7-20 17:04 , Processed in 0.089383 second(s), 13 queries , Gzip On, Redis On.

Powered by 小众纪录片影视聚合 @2010-2023

Copyright © 2010-2024, https://www.xzjlp.com/.


免责说明:本站所有内容链接、图文介绍等均来自于互联网网友分享,本站仅支持web页面展示和文字介绍,绝不提供在线观看和存储服务,也不参与录制、上传、压片。若本站收录内容无意侵犯贵司版权,请发邮件到【a885185#163.com】联系本站,我们将在第一时间删除侵权内容。谢谢!

快速回复 返回顶部 返回列表