小众纪录片影视聚合

 找回密码
 立即注册
查看: 2|回复: 0

[蓝光电影] [2023][香港][剧情][WEB-1080P]失衡凶间之恶念之最[国语音轨/繁体字幕].2023.1080p.DSNP.WEB-DL.DDP.5.1.H.264- 4.23GB

[复制链接]

116万

主题

116万

帖子

116万

积分

超级版主

Rank: 8Rank: 8

积分
1167997
发表于 2024-7-9 21:06:30 | 显示全部楼层 |阅读模式


[2023][香港][剧情][WEB-1080P]失衡凶间之恶念之最[国语音轨/繁体字幕].2023.1080p.DSNP.WEB-DL.DDP.5.1.H.264- 4.23GB

完整标题:失衡凶间之恶念之最[国语音轨/繁体字幕].2023.1080p.DSNP.WEB-DL.DDP.5.1.H.264-DreamHD 4.23GB
◎标  题 失衡凶间之恶念之最
◎译  名 Tales from the Occult: Ultimate Malevolence / 失衡凶间3
◎片  名 失衡凶間之惡念之最
◎年  代 2023
◎产  地 中国香港
◎类  别 剧情 / 惊悚 / 恐怖
◎语  言 粤语
◎上映日期 2023-07-27(中国香港)
◎IMDb链接 https://www.imdb.com/title/tt29686373/
◎豆瓣链接 https://movie.douban.com/subject/36318056/
◎片  长 93分钟
◎导  演 李志毅 Chi-ngai Lee
       李巨源 Gui Yuen Lee
       黄炳耀 Barry Wong
◎演  员 姜皓文 Philip Keung Ho-Man
       朱柏谦 Chu Pak-Him
       陈湛文 Charm Man Chan
       柯炜林 Will Or
       何颖璇 Miss Hunny
       林千渟 Angel Lam
       卢慧敏 Amy Lo
       周祉君 Aaron Chow
       吴凤鸣 Ng Fung Ming
       张凯娸 Kiki Cheung
       张满源 Kenneth Cheung
◎简  介
    電影《失衡凶間之惡念之最》由莊澄及鄧漢強監製,李志毅、李巨源及黃炳耀所執導的三部短篇《要命的溫柔》、《逃殺》及《死亡回憶》,揭開人性最可怕、最醜惡一面。《失衡凶間》最終章,生死無序,一念之距!                                    要命的溫柔                                    好友小木 (林千渟 飾) 慘遭擄殺,魔術師阿花 (何穎璇 飾) 頻見幻象。兩人最後通話的內容疑有破案線索,為此阿花接受催眠,試圖尋回那段記憶,卻將自己置於危險之中。                                    逃殺                                    阿豪(姜皓文 飾)半夜醒來,發現自己在詭秘工廠大廈內。莫明的他繼而遇上屍骸、鬼魅和前妻(盧慧敏 飾)!他必須想辦法逃出這個迷宮。                                    死亡回憶                                    亞譚 (陳湛文 飾) 和余仔 (柯煒林 飾) 是中學同學兼好友,兩人對電影充滿熱情卻多年也混不出來。一次意外,亞譚誤將余仔殺死,卻竟因此而當上導演。
点击图片可查看大图
软字幕无法在截图上展现,HDR版本/杜比视界版本截图会出现颜色异常,请使用支持的设备播放!
##### MediaInfo ######
General
Unique ID                                : 48784646301519698780529243547288250933 (0x24B394C3E079DC4879B5F53277B8AA35)
Complete name                            : Tales.From.the.Occult.Ultimate.Malevolence.2023.1080p.DSNP.WEB-DL.DDP.5.1.H.264-DreamHD.mkv
Duration                                 : 1 h 33 min
Overall bit rate mode                    : Variable
Overall bit rate                         : 6 510 kb/s
Video
ID                                       : 1
Format                                   : AVC
Format/Info                              : Advanced Video Codec
Format profile                           : High@L4
Format settings                          : CABAC / 4 Ref Frames
Format settings, CABAC                   : Yes
Format settings, Reference frames        : 4 frames
Codec ID                                 : V_MPEG4/ISO/AVC
Duration                                 : 1 h 33 min
Bit rate mode                            : Variable
Bit rate                                 : 6 252 kb/s
Maximum bit rate                         : 12.7 Mb/s
Width                                    : 1 920 pixels
Height                                   : 1 080 pixels
Display aspect ratio                     : 16:9
Frame rate mode                          : Constant
Frame rate                               : 24.000 FPS
Color space                              : YUV
Chroma subsampling                       : 4:2:0
Bit depth                                : 8 bits
Scan type                                : Progressive
Bits/(Pixel*Frame)                       : 0.126
Stream size                              : 4.06 GiB (96%)
Language                                 : Chinese
Default                                  : Yes
Forced                                   : No
Color range                              : Limited
Color primaries                          : BT.709
Transfer characteristics                 : BT.709
Matrix coefficients                      : BT.709
Audio
ID                                       : 2
Format                                   : E-AC-3
Format/Info                              : Enhanced AC-3
Commercial name                          : Dolby Digital Plus
Codec ID                                 : A_EAC3
Duration                                 : 1 h 33 min
Bit rate mode                            : Constant
Bit rate                                 : 256 kb/s
Channel(s)                               : 6 channels
Channel layout                           : L R C LFE Ls Rs
Sampling rate                            : 48.0 kHz
Frame rate                               : 31.250 FPS (1536 SPF)
Compression mode                         : Lossy
Stream size                              : 170 MiB (4%)
Language                                 : Chinese
Service kind                             : Complete Main
Default                                  : Yes
Forced                                   : No
Text
ID                                       : 3
Format                                   : UTF-8
Codec ID                                 : S_TEXT/UTF8
Codec ID/Info                            : UTF-8 Plain Text
Duration                                 : 1 h 25 min
Bit rate                                 : 32 b/s
Frame rate                               : 0.151 FPS
Count of elements                        : 779
Stream size                              : 20.3 KiB (0%)
Title                                    : Traditional
Language                                 : Chinese
Default                                  : No
Forced                                   : No
Menu
00:00:47.583                             : en:Intro
00:02:10.582                             : en:Scene 1
01:29:34.708                             : en:Credits
部分资源为软字幕,移动端推荐播放器:MxPlayer,nPlayer,infuse ,其他播放器请自行尝试。
部分资源为软字幕,电脑端推荐播放器:PotPlayer,完美解码,KMPLAYER,其他播放器请自行尝试。






~~~~~~~~~~~~~~~~~~~~~~~~~~~~~~~~~~~~~~~~~
[2023][香港][剧情][WEB-1080P]失衡凶间之恶念之最[国语音轨/繁体字幕].2023.1080p.DSNP.WEB-DL.DDP.5.1.H.264- 4.23GB

【文件列表】:


2023.1080p.DSNP.WEB-DL.DDP.5.1.H.264-DreamHD.



【下载地址列表】:


游客
文件下载链接就在这里,在您回复评论成功后才能显示。
请勿回复无意义的灌水内容。


下拉页面到最底部回复或者【点击此处快捷回复】,回复后返回此处即可查看下载链接。
如您没注册本站会员,可以点击注册本站,注册后即可回复下载。



软字幕无法在截图上展现,HDR版本/杜比视界版本截图会出现颜色异常,请使用支持的设备播放!






[img][/img]






[img][/img]

(HDR版本/杜比视界版本,截图会出现颜色异常,请使用支持的设备播放)

小贴士:【影视自媒体解说文案请移步:夏至文案解说网 www.xiazhi.vip

上一篇:[更 早][其它][剧情][BD-1080P]灰烬[中文字幕].Popioly.1965.BluRay.1080p.DD.2.0.x264- 14.92GB
下一篇:[2014][欧美][动作][WEB-4K]超凡蜘蛛侠2[中文字幕].The.Amazing.SpiderMan.2.2014.UHD.BluRay.2160p.x265.10bit.HDR10.Atmo
回复

使用道具 举报

您需要登录后才可以回帖 登录 | 立即注册

本版积分规则

Archiver|手机版|小众纪录片影视聚合

GMT+8, 2024-7-24 22:33 , Processed in 0.113725 second(s), 13 queries , Gzip On, Redis On.

Powered by 小众纪录片影视聚合 @2010-2023

Copyright © 2010-2024, https://www.xzjlp.com/.


免责说明:本站所有内容链接、图文介绍等均来自于互联网网友分享,本站仅支持web页面展示和文字介绍,绝不提供在线观看和存储服务,也不参与录制、上传、压片。若本站收录内容无意侵犯贵司版权,请发邮件到【a885185#163.com】联系本站,我们将在第一时间删除侵权内容。谢谢!

快速回复 返回顶部 返回列表