小众纪录片影视聚合

 找回密码
 立即注册
查看: 6|回复: 0

[蓝光电影] [2009][欧美][剧情][BD-1080P]地铁惊魂[简繁英字幕].The.Taking.of.Pelham.123.2009.1080p.BluRay.x264.DTS- 10.56GB

[复制链接]

116万

主题

116万

帖子

116万

积分

超级版主

Rank: 8Rank: 8

积分
1167997
发表于 2024-7-9 21:06:41 | 显示全部楼层 |阅读模式


[2009][欧美][剧情][BD-1080P]地铁惊魂[简繁英字幕].The.Taking.of.Pelham.123.2009.1080p.BluRay.x264.DTS- 10.56GB

完整标题:地铁惊魂[简繁英字幕].The.Taking.of.Pelham.123.2009.1080p.BluRay.x264.DTS-SONYHD 10.56GB
◎标  题 地铁惊魂
◎译  名 骑劫地下铁 / 亡命快劫(台) / 骑劫列车123(港) / 地铁大劫案
◎片  名 The Taking of Pelham 123
◎年  代 2009
◎产  地 美国 / 英国
◎类  别 剧情 / 动作 / 犯罪
◎语  言 英语
◎上映日期 2009-10-15(中国大陆) / 2009-06-12(美国)
◎IMDb评分 6.4/10 (201356人评价)
◎IMDb链接 https://www.imdb.com/title/tt1111422/
◎豆瓣评分 6.7/10 (33067人评价)
◎豆瓣链接 https://movie.douban.com/subject/2974273/
◎片  长 106分钟
◎导  演 托尼·斯科特 Tony Scott
◎编  剧 布莱恩·海尔格兰德 Brian Helgeland
       约翰·戈迪 John Godey
◎演  员 丹泽尔·华盛顿 Denzel Washington
       约翰·特拉沃尔塔 John Travolta
       约翰·特托罗 John Turturro
       维克多·高佳卡 Victor Gojcaj
       路易斯·古兹曼 Luis Guzmán
       詹姆斯·甘多菲尼 James Gandolfini
        Ronald E. Giles
       凯瑟琳·西吉斯蒙德 Katherine Sigismund
        Danny Pennacchi
       麦克·休斯顿 Mike Houston
        Robert Vataj
        Julian Walker
        Danielle Glick
        Walter Hartung
       Peter Bucossi Peter Bucossi
       贾斯汀·戴维斯 Justiin Davis
       约瑟夫·辛特隆 Joseph Cintron
        Teddy Valdes
       Bill Walters Bill Walters
        Tim Schuebel
       尼克·波托兰宁 Nick Poltoranin
       约翰·拉维尔 John Lavelle
       安洁纽·艾莉丝 Aunjanue Ellis
       杰森·切尔博 Jason Cerbone
       盖里·巴萨拉巴 Gary Basaraba
       卡西迪·加德 Cassidy Gard
       迈克尔·里斯波利 Michael Rispoli
       拉蒙·罗德里格兹 Ramon Rodriguez
       爱丽丝·克雷梅尔堡 Alice Kremelberg
       杰森·巴特勒·哈纳 Jason Butler Harner
       阿莱克斯·卡鲁兹斯凯 Alex Kaluzhsky
       Billy Devlin Billy Devlin
       约翰·本杰明·西基 John Benjamin Hickey
       勒内·大卫·伊弗拉 Rene David Ifrah
       大卫·尼尔里姆 David Kneeream
       玛丽亚·巴尔蒂罗莫 Maria Bartiromo
       Sean Meehan Sean Meehan
       迈克尔·米姆 Michael Mihm
       格本加·阿金纳格贝 Gbenga Akinnagbe
       布拉德·李·温德 Brad Lee Wind
       CarloVito Santangelo CarloVito Santangelo
       丹尼尔·斯图尔特·谢尔曼 Daniel Stewart Sherman
       托德·苏斯曼 Todd Susman
       Paul Thornton Paul Thornton
       肖恩·尼尔森 Sean Nelson
       尼克·罗兰 Nick Loren
       布莱恩·黑利 Brian Haley
◎简  介
    沃特(丹泽尔•华盛顿 Denzel Washington 饰)是一名纽约地铁调度员,负责控制各条线路的调配运营。某日,一群恐怖分子劫持了地铁123号线,匪首雷德(约翰•屈伏塔 John Travolta 饰)为前美国雇佣兵,声言要提供1000万赎金才释放人质。巧的是,该数额正式保险金、商业贷款等提取的上限。地铁123号线在隧道里飞驰,乘警多人毙命,司机被挟持,乘客人人自危。沃特因工作失职被调离,后因雷德点名,才被迫参与谈判,面对贪污的质问,他的坦诚拯救了一名年轻乘客的生命。面对劫匪提出的高额赎金和苛刻条件,纽约市长如坐针毡,正当他准备划破钱款平息事端之时,丧心病狂的劫匪又突然改变了主意。作为高速运输管理局要员,沃特决定用自己替换人质,与劫匪展开了一场惊心动魄的生死搏斗……##### MediaInfo ######
General
Unique ID                                : 64329827897491914339382349515630649088 (0x30657964496E35CA1E4575FAC6E11F00)
Complete name                            : The.Taking.of.Pelham.123.2009.1080p.BluRay.x264.DTS-SONYHD.mkv
Duration                                 : 1 h 45 min
Overall bit rate                         : 14.3 Mb/s
Video
ID                                       : 1
Format                                   : AVC
Format/Info                              : Advanced Video Codec
Format profile                           : [email protected]
Format settings                          : CABAC / 4 Ref Frames
Format settings, CABAC                   : Yes
Format settings, Reference frames        : 4 frames
Codec ID                                 : V_MPEG4/ISO/AVC
Duration                                 : 1 h 45 min
Bit rate                                 : 12.7 Mb/s
Width                                    : 1 920 pixels
Height                                   : 800 pixels
Display aspect ratio                     : 2.40:1
Frame rate mode                          : Constant
Frame rate                               : 23.976 (24000/1001) FPS
Color space                              : YUV
Chroma subsampling                       : 4:2:0
Bit depth                                : 8 bits
Scan type                                : Progressive
Bits/(Pixel*Frame)                       : 0.344
Stream size                              : 9.36 GiB (89%)
Writing library                          : x264 core 164 r3085+55M 938b6d0 t_mod_New [(8 & 10)-bit@all X86_64]
Encoding settings                        : cabac=1 / ref=4 / deblock=1:-3:-3 / analyse=0x3:0x133 / me=umh / subme=11 / psy=1 / fade_compensate=0.00 / psy_rd=1.00:0.00 / mixed_ref=1 / me_range=48 / chroma_me=1 / trellis=2 / 8x8dct=1 / cqm=0 / deadzone=21,11 / fast_pskip=0 / chroma_qp_offset=-3 / threads=25 / lookahead_threads=6 / sliced_threads=0 / nr=0 / decimate=0 / interlaced=0 / bluray_compat=0 / constrained_intra=0 / fgo=0 / bframes=11 / b_pyramid=2 / b_adapt=2 / b_bias=0 / direct=3 / weightb=1 / open_gop=0 / weightp=2 / keyint=240 / keyint_min=1 / scenecut=40 / intra_refresh=0 / rc_lookahead=72 / rc=crf / mbtree=0 / crf=19.4300 / qcomp=0.60 / qpmin=0:0:0 / qpmax=69:69:69 / qpstep=4 / vbv_maxrate=62500 / vbv_bufsize=78125 / crf_max=0.0 / nal_hrd=none / filler=0 / ip_ratio=1.40 / pb_ratio=1.30 / aq=3:0.70 / aq-sensitivity=10.00 / aq-factor=1.00:1.00:1.00 / aq2=0 / aq3=0
Default                                  : Yes
Forced                                   : No
Audio
ID                                       : 2
ID in the original source medium         : 4352 (0x1100)
Format                                   : DTS
Format/Info                              : Digital Theater Systems
Codec ID                                 : A_DTS
Duration                                 : 1 h 45 min
Bit rate mode                            : Constant
Bit rate                                 : 1 509 kb/s
Channel(s)                               : 6 channels
Channel layout                           : C L R Ls Rs LFE
Sampling rate                            : 48.0 kHz
Frame rate                               : 93.750 FPS (512 SPF)
Bit depth                                : 24 bits
Compression mode                         : Lossy
Stream size                              : 1.12 GiB (11%)
Title                                    : English
Language                                 : English
Default                                  : Yes
Forced                                   : No
Original source medium                   : Blu-ray
Text #1
ID                                       : 3
ID in the original source medium         : 4632 (0x1218)
Format                                   : PGS
Muxing mode                              : zlib
Codec ID                                 : S_HDMV/PGS
Codec ID/Info                            : Picture based subtitle format used on BDs/HD-DVDs
Duration                                 : 1 h 45 min
Bit rate                                 : 57.0 kb/s
Frame rate                               : 0.489 FPS
Count of elements                        : 3099
Stream size                              : 43.0 MiB (0%)
Title                                    : chs&eng
Language                                 : Chinese
Default                                  : Yes
Forced                                   : No
Original source medium                   : Blu-ray
Text #2
ID                                       : 4
ID in the original source medium         : 4633 (0x1219)
Format                                   : PGS
Muxing mode                              : zlib
Codec ID                                 : S_HDMV/PGS
Codec ID/Info                            : Picture based subtitle format used on BDs/HD-DVDs
Duration                                 : 1 h 45 min
Bit rate                                 : 57.2 kb/s
Frame rate                               : 0.489 FPS
Count of elements                        : 3099
Stream size                              : 43.2 MiB (0%)
Title                                    : cht&eng
Language                                 : Chinese
Default                                  : No
Forced                                   : No
Original source medium                   : Blu-ray
Text #3
ID                                       : 5
ID in the original source medium         : 4634 (0x121A)
Format                                   : PGS
Muxing mode                              : zlib
Codec ID                                 : S_HDMV/PGS
Codec ID/Info                            : Picture based subtitle format used on BDs/HD-DVDs
Duration                                 : 1 h 45 min
Bit rate                                 : 30.4 kb/s
Frame rate                               : 0.489 FPS
Count of elements                        : 3099
Stream size                              : 22.9 MiB (0%)
Title                                    : chs
Language                                 : Chinese
Default                                  : No
Forced                                   : No
Original source medium                   : Blu-ray
Text #4
ID                                       : 6
ID in the original source medium         : 4635 (0x121B)
Format                                   : PGS
Muxing mode                              : zlib
Codec ID                                 : S_HDMV/PGS
Codec ID/Info                            : Picture based subtitle format used on BDs/HD-DVDs
Duration                                 : 1 h 45 min
Bit rate                                 : 30.6 kb/s
Frame rate                               : 0.489 FPS
Count of elements                        : 3099
Stream size                              : 23.1 MiB (0%)
Title                                    : cht
Language                                 : Chinese
Default                                  : No
Forced                                   : No
Original source medium                   : Blu-ray
Text #5
ID                                       : 7
ID in the original source medium         : 4608 (0x1200)
Format                                   : PGS
Muxing mode                              : zlib
Codec ID                                 : S_HDMV/PGS
Codec ID/Info                            : Picture based subtitle format used on BDs/HD-DVDs
Duration                                 : 1 h 44 min
Bit rate                                 : 41.5 kb/s
Frame rate                               : 0.453 FPS
Count of elements                        : 2832
Stream size                              : 30.9 MiB (0%)
Title                                    : eng
Language                                 : English
Default                                  : No
Forced                                   : No
Original source medium                   : Blu-ray
Menu
00:00:00.000                             : en:Chapter 01
00:07:10.346                             : en:Chapter 02
00:12:56.192                             : en:Chapter 03
00:18:20.682                             : en:Chapter 04
00:24:19.833                             : en:Chapter 05
00:30:08.556                             : en:Chapter 06
00:36:33.691                             : en:Chapter 07
00:42:26.794                             : en:Chapter 08
00:48:44.212                             : en:Chapter 09
00:54:05.450                             : en:Chapter 10
01:00:23.286                             : en:Chapter 11
01:07:12.570                             : en:Chapter 12
01:12:07.281                             : en:Chapter 13
01:20:04.716                             : en:Chapter 14
01:25:28.414                             : en:Chapter 15
01:32:53.568                             : en:Chapter 16
部分资源为软字幕,移动端推荐播放器:MxPlayer,nPlayer,infuse ,其他播放器请自行尝试。
部分资源为软字幕,电脑端推荐播放器:PotPlayer,完美解码,KMPLAYER,其他播放器请自行尝试。






~~~~~~~~~~~~~~~~~~~~~~~~~~~~~~~~~~~~~~~~~
[2009][欧美][剧情][BD-1080P]地铁惊魂[简繁英字幕].The.Taking.of.Pelham.123.2009.1080p.BluRay.x264.DTS- 10.56GB

【文件列表】:


The.Taking.of.Pelham.123.2009.1080p.BluRay.x264.DTS-SONYHD.



【下载地址列表】:


游客
文件下载链接就在这里,在您回复评论成功后才能显示。
请勿回复无意义的灌水内容。


下拉页面到最底部回复或者【点击此处快捷回复】,回复后返回此处即可查看下载链接。
如您没注册本站会员,可以点击注册本站,注册后即可回复下载。



软字幕无法在截图上展现,HDR版本/杜比视界版本截图会出现颜色异常,请使用支持的设备播放!






[img][/img]






[img][/img]

(HDR版本/杜比视界版本,截图会出现颜色异常,请使用支持的设备播放)

小贴士:【影视自媒体解说文案请移步:夏至文案解说网 www.xiazhi.vip

上一篇:[2018][欧美][动作][WEB-4K]通勤营救[国英多音轨/中文字幕/特效字幕].The.Commuter.2018.Bluray.2160p.TrueHD7.1.HDR.x265.10bit-Dr
下一篇:[2009][欧美][剧情][BD-1080P]地铁惊魂[简繁英字幕].The.Taking.of.Pelham.123.2009.1080p.BluRay.x265.10bit.DTS- 7.4
回复

使用道具 举报

您需要登录后才可以回帖 登录 | 立即注册

本版积分规则

Archiver|手机版|小众纪录片影视聚合

GMT+8, 2024-7-25 02:21 , Processed in 0.071574 second(s), 13 queries , Gzip On, Redis On.

Powered by 小众纪录片影视聚合 @2010-2023

Copyright © 2010-2024, https://www.xzjlp.com/.


免责说明:本站所有内容链接、图文介绍等均来自于互联网网友分享,本站仅支持web页面展示和文字介绍,绝不提供在线观看和存储服务,也不参与录制、上传、压片。若本站收录内容无意侵犯贵司版权,请发邮件到【a885185#163.com】联系本站,我们将在第一时间删除侵权内容。谢谢!

快速回复 返回顶部 返回列表