小众纪录片影视聚合

 找回密码
 立即注册
查看: 3|回复: 0

[蓝光电影] [2023][欧美][剧情][BD-1080P]傻钱[简繁英字幕].Dumb.Money.2023.BluRay.1080p.DTS-HDMA5.1.x264- 13.33GB

[复制链接]

116万

主题

116万

帖子

116万

积分

超级版主

Rank: 8Rank: 8

积分
1167997
发表于 2024-7-9 21:06:54 | 显示全部楼层 |阅读模式


[2023][欧美][剧情][BD-1080P]傻钱[简繁英字幕].Dumb.Money.2023.BluRay.1080p.DTS-HDMA5.1.x264- 13.33GB

完整标题:傻钱[简繁英字幕].Dumb.Money.2023.BluRay.1080p.DTS-HDMA5.1.x264-DreamHD 13.33GB
◎标  题 傻钱
◎译  名 笨钱效应(台) / 玩谢华尔街行动(港)
◎片  名 Dumb Money
◎年  代 2023
◎产  地 美国
◎类  别 剧情 / 喜剧 / 传记
◎语  言 英语
◎上映日期 2023-09-08(多伦多电影节) / 2023-09-15(美国)
◎IMDb评分 6.9/10 (18265人评价)
◎IMDb链接 https://www.imdb.com/title/tt13957560/
◎豆瓣评分 7.1/10 (3290人评价)
◎豆瓣链接 https://movie.douban.com/subject/36082226/
◎片  长 104分钟
◎导  演 克雷格·吉勒斯佩 Craig Gillespie
◎编  剧 丽贝卡·安吉洛 Rebecca Angelo
       劳伦·舒克·勃鲁姆 Lauren Schuker Blum
       本·麦兹里奇 Ben Mezrich
◎演  员 保罗·达诺 Paul Dano
       塞斯·罗根 Seth Rogen
       皮特·戴维森 Pete Davidson
       亚美莉卡·费雷拉 America Ferrera
       尼克·奥弗曼 Nick Offerman
       安东尼·拉莫斯 Anthony Ramos
       塞巴斯蒂安·斯坦 Sebastian Stan
       谢琳·伍德蕾 Shailene Woodley
       塔莉娅·莱德 Talia Ryder
       戴恩·德哈恩 Dane DeHaan
       克兰西·布朗 Clancy Brown
       文森特·多诺费奥 Vincent D'Onofrio
       米哈拉·赫罗德 Myha’la Herrold
       凯特·伯顿 Kate Burton
       鲁西·科塔 Rushi Kota
       克里斯蒂娜·布鲁卡托 Christina Brucato
       德尼兹·阿克代尼兹 Deniz Akdeniz
       萨尔·伦迪诺 Sal Rendino
       布莱恩·伯顿 Bryan Burton
       丹尼斯·法尼 Dennis Funny
       温斯洛·布莱特 Winslow Bright
       杰拉尔多·罗德里格斯 Gerardo Rodriguez
       亚历克斯·汉默利 Alex Hammerli
       安·玛丽·尤奥 Ann Marie Yoo
       拉里·欧文斯 Larry Owens
       卓拉·辛普森·卡塞贝尔 Zora Casebere
       诺埃尔·泰勒·托里斯 Noel Tyler Torres
       尼古拉斯·卡莱罗 Nicolas Calero
       艾弗里·科尔 Avery Cole
       丹尼斯·奥伊 Denis Ooi
       布莱恩·大卫·特雷西 Brian David Tracy
◎简  介
    #散户逼空华尔街将被翻拍电影# 散户逼空了华尔街大机构的故事要被拍成电影啦!米高梅购得[社交网络]原著作者本·麦兹里奇构想的新书《反社交网络》(The Antisocial Network,暂译)提案的电影改编权。该书讲述一群业余投资者、游戏玩家和网络巨魔让华尔街陷入困境的故事。麦兹里奇与经纪人于上周在交易市场释出该书提案,米高梅于上周五晚迅速购得改编权。麦兹里奇将在本月寻找该书出版商。亚伦·莱德([降临])将担任影片制作人。##### MediaInfo ######
General
Unique ID                                : 307575248144926864931563454342177590104 (0xE764D68ACD8E17D94347D24923518B58)
Complete name                            : Dumb.Money.2023.BluRay.1080p.DTS-HDMA5.1.x264-DreamHD.mkv
Duration                                 : 1 h 45 min
Overall bit rate mode                    : Variable
Overall bit rate                         : 18.2 Mb/s
Video
ID                                       : 1
Format                                   : AVC
Format/Info                              : Advanced Video Codec
Format profile                           : [email protected]
Format settings                          : CABAC / 4 Ref Frames
Format settings, CABAC                   : Yes
Format settings, Reference frames        : 4 frames
Codec ID                                 : V_MPEG4/ISO/AVC
Duration                                 : 1 h 45 min
Bit rate                                 : 14.4 Mb/s
Width                                    : 1 920 pixels
Height                                   : 804 pixels
Display aspect ratio                     : 2.40:1
Frame rate mode                          : Constant
Frame rate                               : 23.976 (24000/1001) FPS
Color space                              : YUV
Chroma subsampling                       : 4:2:0
Bit depth                                : 8 bits
Scan type                                : Progressive
Bits/(Pixel*Frame)                       : 0.390
Stream size                              : 10.6 GiB (79%)
Writing library                          : x264 core 157 r2867+150 7e91e0e t_mod_Custom_2 [8-bit@all X86_64]
Encoding settings                        : cabac=1 / ref=4 / deblock=1:-3:-3 / analyse=0x3:0x133 / me=umh / subme=11 / psy=1 / fade_compensate=0.00 / psy_rd=0.90:0.10 / mixed_ref=1 / me_range=64 / chroma_me=1 / trellis=2 / 8x8dct=1 / cqm=0 / deadzone=21,11 / fast_pskip=0 / chroma_qp_offset=-4 / threads=25 / lookahead_threads=4 / sliced_threads=0 / nr=0 / decimate=1 / interlaced=0 / bluray_compat=0 / constrained_intra=0 / fgo=0 / bframes=8 / b_pyramid=2 / b_adapt=2 / b_bias=0 / direct=3 / weightb=1 / open_gop=0 / weightp=2 / keyint=250 / keyint_min=23 / scenecut=40 / intra_refresh=0 / rc_lookahead=60 / rc=crf / mbtree=0 / crf=16.5000 / qcomp=0.70 / qpmin=0:0:0 / qpmax=69:69:69 / qpstep=4 / vbv_maxrate=35000 / vbv_bufsize=35000 / crf_max=0.0 / nal_hrd=none / filler=0 / ip_ratio=1.40 / pb_ratio=1.30 / aq=3:1.00 / aq-sensitivity=10.00 / aq-factor=1.00:1.00:1.00 / aq2=0 / aq3=0
Language                                 : English
Default                                  : Yes
Forced                                   : No
Audio
ID                                       : 2
ID in the original source medium         : 4352 (0x1100)
Format                                   : DTS XLL
Format/Info                              : Digital Theater Systems
Commercial name                          : DTS-HD Master Audio
Codec ID                                 : A_DTS
Duration                                 : 1 h 45 min
Bit rate mode                            : Variable
Bit rate                                 : 3 558 kb/s
Channel(s)                               : 6 channels
Channel layout                           : C L R Ls Rs LFE
Sampling rate                            : 48.0 kHz
Frame rate                               : 93.750 FPS (512 SPF)
Bit depth                                : 24 bits
Compression mode                         : Lossless
Stream size                              : 2.61 GiB (20%)
Language                                 : English
Default                                  : Yes
Forced                                   : No
Original source medium                   : Blu-ray
Text #1
ID                                       : 3
Format                                   : PGS
Muxing mode                              : zlib
Codec ID                                 : S_HDMV/PGS
Codec ID/Info                            : Picture based subtitle format used on BDs/HD-DVDs
Duration                                 : 1 h 43 min
Bit rate                                 : 36.3 kb/s
Frame rate                               : 0.590 FPS
Count of elements                        : 3678
Stream size                              : 27.0 MiB (0%)
Title                                    : CHS
Language                                 : Chinese
Default                                  : Yes
Forced                                   : No
Text #2
ID                                       : 4
Format                                   : PGS
Muxing mode                              : zlib
Codec ID                                 : S_HDMV/PGS
Codec ID/Info                            : Picture based subtitle format used on BDs/HD-DVDs
Duration                                 : 1 h 43 min
Bit rate                                 : 37.3 kb/s
Frame rate                               : 0.591 FPS
Count of elements                        : 3684
Stream size                              : 27.7 MiB (0%)
Title                                    : CHT/TW
Language                                 : Chinese
Default                                  : No
Forced                                   : No
Text #3
ID                                       : 5
Format                                   : PGS
Muxing mode                              : zlib
Codec ID                                 : S_HDMV/PGS
Codec ID/Info                            : Picture based subtitle format used on BDs/HD-DVDs
Duration                                 : 1 h 43 min
Bit rate                                 : 41.7 kb/s
Frame rate                               : 0.589 FPS
Count of elements                        : 3674
Stream size                              : 31.0 MiB (0%)
Title                                    : CHT/HK
Language                                 : Chinese
Default                                  : No
Forced                                   : No
Text #4
ID                                       : 6
Format                                   : PGS
Muxing mode                              : zlib
Codec ID                                 : S_HDMV/PGS
Codec ID/Info                            : Picture based subtitle format used on BDs/HD-DVDs
Duration                                 : 1 h 43 min
Bit rate                                 : 61.7 kb/s
Frame rate                               : 0.594 FPS
Count of elements                        : 3705
Stream size                              : 45.8 MiB (0%)
Title                                    : CHS/ENG
Language                                 : Chinese
Default                                  : No
Forced                                   : No
Text #5
ID                                       : 7
Format                                   : PGS
Muxing mode                              : zlib
Codec ID                                 : S_HDMV/PGS
Codec ID/Info                            : Picture based subtitle format used on BDs/HD-DVDs
Duration                                 : 1 h 43 min
Bit rate                                 : 62.2 kb/s
Frame rate                               : 0.594 FPS
Count of elements                        : 3705
Stream size                              : 46.2 MiB (0%)
Title                                    : CHT/ENG
Language                                 : Chinese
Default                                  : No
Forced                                   : No
Text #6
ID                                       : 8
ID in the original source medium         : 4608 (0x1200)
Format                                   : PGS
Muxing mode                              : zlib
Codec ID                                 : S_HDMV/PGS
Codec ID/Info                            : Picture based subtitle format used on BDs/HD-DVDs
Duration                                 : 1 h 41 min
Bit rate                                 : 63.0 kb/s
Frame rate                               : 0.664 FPS
Count of elements                        : 4041
Stream size                              : 45.7 MiB (0%)
Title                                    : ENG
Language                                 : English
Default                                  : No
Forced                                   : No
Original source medium                   : Blu-ray
Menu
00:00:00.000                             : 第 01 章
00:03:53.441                             : 第 02 章
00:08:23.711                             : 第 03 章
00:13:54.542                             : 第 04 章
00:19:02.141                             : 第 05 章
00:23:39.251                             : 第 06 章
00:28:28.164                             : 第 07 章
00:36:45.494                             : 第 08 章
00:44:59.613                             : 第 09 章
00:52:49.791                             : 第 10 章
01:00:15.737                             : 第 11 章
01:08:17.009                             : 第 12 章
01:12:48.530                             : 第 13 章
01:20:52.055                             : 第 14 章
01:27:06.054                             : 第 15 章
01:34:12.730                             : 第 16 章
部分资源为软字幕,移动端推荐播放器:MxPlayer,nPlayer,infuse ,其他播放器请自行尝试。
部分资源为软字幕,电脑端推荐播放器:PotPlayer,完美解码,KMPLAYER,其他播放器请自行尝试。






~~~~~~~~~~~~~~~~~~~~~~~~~~~~~~~~~~~~~~~~~
[2023][欧美][剧情][BD-1080P]傻钱[简繁英字幕].Dumb.Money.2023.BluRay.1080p.DTS-HDMA5.1.x264- 13.33GB

【文件列表】:


Dumb.Money.2023.BluRay.1080p.DTS-HDMA5.1.x264-DreamHD.



【下载地址列表】:


游客
文件下载链接就在这里,在您回复评论成功后才能显示。
请勿回复无意义的灌水内容。


下拉页面到最底部回复或者【点击此处快捷回复】,回复后返回此处即可查看下载链接。
如您没注册本站会员,可以点击注册本站,注册后即可回复下载。



软字幕无法在截图上展现,HDR版本/杜比视界版本截图会出现颜色异常,请使用支持的设备播放!






[img][/img]






[img][/img]

(HDR版本/杜比视界版本,截图会出现颜色异常,请使用支持的设备播放)

小贴士:【影视自媒体解说文案请移步:夏至文案解说网 www.xiazhi.vip

上一篇:[2023][大陆][剧情][WEB-4K]九鼎记之禹皇宝藏[国语配音/中文字幕].2023.2160p.WEB-DL.H265.AAC- 10.57GB
下一篇:[2023][欧美][剧情][BD-1080P]傻钱[简繁英字幕].Dumb.Money.2023.BluRay.1080p.DTS-HDMA5.1.x265.10bit- 6.51GB
回复

使用道具 举报

您需要登录后才可以回帖 登录 | 立即注册

本版积分规则

Archiver|手机版|小众纪录片影视聚合

GMT+8, 2024-7-25 01:53 , Processed in 0.072158 second(s), 13 queries , Gzip On, Redis On.

Powered by 小众纪录片影视聚合 @2010-2023

Copyright © 2010-2024, https://www.xzjlp.com/.


免责说明:本站所有内容链接、图文介绍等均来自于互联网网友分享,本站仅支持web页面展示和文字介绍,绝不提供在线观看和存储服务,也不参与录制、上传、压片。若本站收录内容无意侵犯贵司版权,请发邮件到【a885185#163.com】联系本站,我们将在第一时间删除侵权内容。谢谢!

快速回复 返回顶部 返回列表