小众纪录片影视聚合

 找回密码
 立即注册
查看: 4|回复: 0

[蓝光电影] [2023][其它][喜剧][WEB-1080P]O Primeiro Natal do Mundo[简繁英字幕].Worlds.First.Christmas.2023.1080p.AMZN.WEB-DL.D

[复制链接]

112万

主题

112万

帖子

112万

积分

超级版主

Rank: 8Rank: 8

积分
1128817
发表于 7 天前 | 显示全部楼层 |阅读模式


[2023][其它][喜剧][WEB-1080P]O Primeiro Natal do Mundo[简繁英字幕].Worlds.First.Christmas.2023.1080p.AMZN.WEB-DL.D

完整标题:O Primeiro Natal do Mundo[简繁英字幕].Worlds.First.Christmas.2023.1080p.AMZN.WEB-DL.DDP.5.1.H.264-DreamHD 6.55GB
◎标  题 O Primeiro Natal do Mundo
◎年  代 2023
◎产  地 巴西
◎类  别 喜剧
◎上映日期 2023(巴西)
◎IMDb评分 4.4/10 (8人评价)
◎IMDb链接 https://www.imdb.com/title/tt28146236/
◎豆瓣链接 https://movie.douban.com/subject/36678140/
◎简  介
    A young girl wishes Christmas was over for good, and her wish is granted with unexpected consequences.##### MediaInfo ######
General
Unique ID                                : 115771901373117980643441050535919365545 (0x5718DB6EA9646FDFCCBC89EFB3242DA9)
Complete name                            : Worlds.First.Christmas.2023.1080p.AMZN.WEB-DL.DDP.5.1.H.264-DreamHD.mkv
Duration                                 : 1 h 33 min
Overall bit rate                         : 9 997 kb/s
Video
ID                                       : 1
Format                                   : AVC
Format/Info                              : Advanced Video Codec
Format profile                           : High@L4
Format settings                          : CABAC / 4 Ref Frames
Format settings, CABAC                   : Yes
Format settings, Reference frames        : 4 frames
Codec ID                                 : V_MPEG4/ISO/AVC
Duration                                 : 1 h 33 min
Bit rate mode                            : Constant
Bit rate                                 : 9 349 kb/s
Nominal bit rate                         : 10 000 kb/s
Width                                    : 1 920 pixels
Height                                   : 960 pixels
Display aspect ratio                     : 2.000
Frame rate mode                          : Constant
Frame rate                               : 24.000 FPS
Color space                              : YUV
Chroma subsampling                       : 4:2:0
Bit depth                                : 8 bits
Scan type                                : Progressive
Bits/(Pixel*Frame)                       : 0.211
Stream size                              : 6.12 GiB (94%)
Language                                 : Portuguese
Default                                  : Yes
Forced                                   : No
Color range                              : Limited
Color primaries                          : BT.709
Transfer characteristics                 : BT.709
Matrix coefficients                      : BT.709
Audio
ID                                       : 2
Format                                   : E-AC-3
Format/Info                              : Enhanced AC-3
Commercial name                          : Dolby Digital Plus
Codec ID                                 : A_EAC3
Duration                                 : 1 h 33 min
Bit rate mode                            : Constant
Bit rate                                 : 640 kb/s
Channel(s)                               : 6 channels
Channel layout                           : L R C LFE Ls Rs
Sampling rate                            : 48.0 kHz
Frame rate                               : 31.250 FPS (1536 SPF)
Compression mode                         : Lossy
Stream size                              : 429 MiB (6%)
Title                                    : Brazil
Language                                 : Portuguese
Service kind                             : Complete Main
Default                                  : Yes
Forced                                   : No
Text #1
ID                                       : 3
Format                                   : UTF-8
Codec ID                                 : S_TEXT/UTF8
Codec ID/Info                            : UTF-8 Plain Text
Duration                                 : 1 h 31 min
Bit rate                                 : 101 b/s
Frame rate                               : 0.384 FPS
Count of elements                        : 2121
Stream size                              : 68.4 KiB (0%)
Title                                    : Brazil (SDH)
Language                                 : Portuguese
Default                                  : No
Forced                                   : No
Text #2
ID                                       : 4
Format                                   : UTF-8
Codec ID                                 : S_TEXT/UTF8
Codec ID/Info                            : UTF-8 Plain Text
Duration                                 : 1 h 32 min
Bit rate                                 : 78 b/s
Frame rate                               : 0.290 FPS
Count of elements                        : 1618
Stream size                              : 53.8 KiB (0%)
Language                                 : Portuguese
Default                                  : No
Forced                                   : No
Text #3
ID                                       : 5
Format                                   : UTF-8
Codec ID                                 : S_TEXT/UTF8
Codec ID/Info                            : UTF-8 Plain Text
Duration                                 : 1 h 32 min
Bit rate                                 : 74 b/s
Frame rate                               : 0.292 FPS
Count of elements                        : 1628
Stream size                              : 50.7 KiB (0%)
Title                                    : Simplified
Language                                 : Chinese
Default                                  : No
Forced                                   : No
Text #4
ID                                       : 6
Format                                   : UTF-8
Codec ID                                 : S_TEXT/UTF8
Codec ID/Info                            : UTF-8 Plain Text
Duration                                 : 1 h 32 min
Bit rate                                 : 77 b/s
Frame rate                               : 0.292 FPS
Count of elements                        : 1628
Stream size                              : 52.8 KiB (0%)
Title                                    : Traditional
Language                                 : Chinese
Default                                  : No
Forced                                   : No
Text #5
ID                                       : 7
Format                                   : UTF-8
Codec ID                                 : S_TEXT/UTF8
Codec ID/Info                            : UTF-8 Plain Text
Duration                                 : 1 h 32 min
Bit rate                                 : 129 b/s
Frame rate                               : 0.291 FPS
Count of elements                        : 1626
Stream size                              : 88.2 KiB (0%)
Title                                    : world
Language                                 : Arabic
Default                                  : No
Forced                                   : No
Text #6
ID                                       : 8
Format                                   : UTF-8
Codec ID                                 : S_TEXT/UTF8
Codec ID/Info                            : UTF-8 Plain Text
Duration                                 : 1 h 32 min
Bit rate                                 : 77 b/s
Frame rate                               : 0.288 FPS
Count of elements                        : 1609
Stream size                              : 52.9 KiB (0%)
Title                                    : Czechia
Language                                 : Czech
Default                                  : No
Forced                                   : No
Text #7
ID                                       : 9
Format                                   : UTF-8
Codec ID                                 : S_TEXT/UTF8
Codec ID/Info                            : UTF-8 Plain Text
Duration                                 : 1 h 32 min
Bit rate                                 : 73 b/s
Frame rate                               : 0.292 FPS
Count of elements                        : 1627
Stream size                              : 49.9 KiB (0%)
Title                                    : Denmark
Language                                 : Danish
Default                                  : No
Forced                                   : No
Text #8
ID                                       : 10
Format                                   : UTF-8
Codec ID                                 : S_TEXT/UTF8
Codec ID/Info                            : UTF-8 Plain Text
Duration                                 : 1 h 32 min
Bit rate                                 : 73 b/s
Frame rate                               : 0.292 FPS
Count of elements                        : 1627
Stream size                              : 50.2 KiB (0%)
Language                                 : German
Default                                  : No
Forced                                   : No
Text #9
ID                                       : 11
Format                                   : UTF-8
Codec ID                                 : S_TEXT/UTF8
Codec ID/Info                            : UTF-8 Plain Text
Duration                                 : 1 h 32 min
Bit rate                                 : 131 b/s
Frame rate                               : 0.292 FPS
Count of elements                        : 1628
Stream size                              : 89.5 KiB (0%)
Title                                    : Greece
Language                                 : Greek
Default                                  : No
Forced                                   : No
Text #10
ID                                       : 12
Format                                   : UTF-8
Codec ID                                 : S_TEXT/UTF8
Codec ID/Info                            : UTF-8 Plain Text
Duration                                 : 1 h 31 min
Bit rate                                 : 76 b/s
Frame rate                               : 0.295 FPS
Count of elements                        : 1622
Stream size                              : 51.4 KiB (0%)
Language                                 : English
Default                                  : No
Forced                                   : No
Text #11
ID                                       : 13
Format                                   : UTF-8
Codec ID                                 : S_TEXT/UTF8
Codec ID/Info                            : UTF-8 Plain Text
Duration                                 : 1 h 32 min
Bit rate                                 : 71 b/s
Frame rate                               : 0.293 FPS
Count of elements                        : 1637
Stream size                              : 48.5 KiB (0%)
Title                                    : Latin America
Language                                 : Spanish
Default                                  : No
Forced                                   : No
Text #12
ID                                       : 14
Format                                   : UTF-8
Codec ID                                 : S_TEXT/UTF8
Codec ID/Info                            : UTF-8 Plain Text
Duration                                 : 1 h 32 min
Bit rate                                 : 71 b/s
Frame rate                               : 0.291 FPS
Count of elements                        : 1623
Stream size                              : 48.6 KiB (0%)
Language                                 : Spanish
Default                                  : No
Forced                                   : No
Text #13
ID                                       : 15
Format                                   : UTF-8
Codec ID                                 : S_TEXT/UTF8
Codec ID/Info                            : UTF-8 Plain Text
Duration                                 : 1 h 32 min
Bit rate                                 : 69 b/s
Frame rate                               : 0.291 FPS
Count of elements                        : 1621
Stream size                              : 47.0 KiB (0%)
Language                                 : Finnish
Default                                  : No
Forced                                   : No
Text #14
ID                                       : 16
Format                                   : UTF-8
Codec ID                                 : S_TEXT/UTF8
Codec ID/Info                            : UTF-8 Plain Text
Duration                                 : 1 h 32 min
Bit rate                                 : 80 b/s
Frame rate                               : 0.291 FPS
Count of elements                        : 1624
Stream size                              : 54.5 KiB (0%)
Title                                    : Philippines
Language                                 : fil
Default                                  : No
Forced                                   : No
Text #15
ID                                       : 17
Format                                   : UTF-8
Codec ID                                 : S_TEXT/UTF8
Codec ID/Info                            : UTF-8 Plain Text
Duration                                 : 1 h 32 min
Bit rate                                 : 75 b/s
Frame rate                               : 0.291 FPS
Count of elements                        : 1621
Stream size                              : 51.7 KiB (0%)
Language                                 : French
Default                                  : No
Forced                                   : No
Text #16
ID                                       : 18
Format                                   : UTF-8
Codec ID                                 : S_TEXT/UTF8
Codec ID/Info                            : UTF-8 Plain Text
Duration                                 : 1 h 32 min
Bit rate                                 : 118 b/s
Frame rate                               : 0.292 FPS
Count of elements                        : 1628
Stream size                              : 80.8 KiB (0%)
Title                                    : Israel
Language                                 : Hebrew
Default                                  : No
Forced                                   : No
Text #17
ID                                       : 19
Format                                   : UTF-8
Codec ID                                 : S_TEXT/UTF8
Codec ID/Info                            : UTF-8 Plain Text
Duration                                 : 1 h 32 min
Bit rate                                 : 186 b/s
Frame rate                               : 0.292 FPS
Count of elements                        : 1628
Stream size                              : 127 KiB (0%)
Title                                    : India
Language                                 : Hindi
Default                                  : No
Forced                                   : No
Text #18
ID                                       : 20
Format                                   : UTF-8
Codec ID                                 : S_TEXT/UTF8
Codec ID/Info                            : UTF-8 Plain Text
Duration                                 : 1 h 32 min
Bit rate                                 : 76 b/s
Frame rate                               : 0.293 FPS
Count of elements                        : 1635
Stream size                              : 51.9 KiB (0%)
Language                                 : Hungarian
Default                                  : No
Forced                                   : No
Text #19
ID                                       : 21
Format                                   : UTF-8
Codec ID                                 : S_TEXT/UTF8
Codec ID/Info                            : UTF-8 Plain Text
Duration                                 : 1 h 32 min
Bit rate                                 : 72 b/s
Frame rate                               : 0.291 FPS
Count of elements                        : 1626
Stream size                              : 49.0 KiB (0%)
Language                                 : Indonesian
Default                                  : No
Forced                                   : No
Text #20
ID                                       : 22
Format                                   : UTF-8
Codec ID                                 : S_TEXT/UTF8
Codec ID/Info                            : UTF-8 Plain Text
Duration                                 : 1 h 32 min
Bit rate                                 : 73 b/s
Frame rate                               : 0.292 FPS
Count of elements                        : 1627
Stream size                              : 50.2 KiB (0%)
Language                                 : Italian
Default                                  : No
Forced                                   : No
Text #21
ID                                       : 23
Format                                   : UTF-8
Codec ID                                 : S_TEXT/UTF8
Codec ID/Info                            : UTF-8 Plain Text
Duration                                 : 1 h 33 min
Bit rate                                 : 71 b/s
Frame rate                               : 0.290 FPS
Count of elements                        : 1621
Stream size                              : 48.9 KiB (0%)
Title                                    : Japan
Language                                 : Japanese
Default                                  : No
Forced                                   : No
Text #22
ID                                       : 24
Format                                   : UTF-8
Codec ID                                 : S_TEXT/UTF8
Codec ID/Info                            : UTF-8 Plain Text
Duration                                 : 1 h 32 min
Bit rate                                 : 86 b/s
Frame rate                               : 0.291 FPS
Count of elements                        : 1626
Stream size                              : 58.9 KiB (0%)
Title                                    : South Korea
Language                                 : Korean
Default                                  : No
Forced                                   : No
Text #23
ID                                       : 25
Format                                   : UTF-8
Codec ID                                 : S_TEXT/UTF8
Codec ID/Info                            : UTF-8 Plain Text
Duration                                 : 1 h 32 min
Bit rate                                 : 72 b/s
Frame rate                               : 0.292 FPS
Count of elements                        : 1627
Stream size                              : 49.2 KiB (0%)
Title                                    : Malaysia
Language                                 : Malay
Default                                  : No
Forced                                   : No
Text #24
ID                                       : 26
Format                                   : UTF-8
Codec ID                                 : S_TEXT/UTF8
Codec ID/Info                            : UTF-8 Plain Text
Duration                                 : 1 h 32 min
Bit rate                                 : 68 b/s
Frame rate                               : 0.291 FPS
Count of elements                        : 1624
Stream size                              : 47.0 KiB (0%)
Title                                    : Norway
Language                                 : Norwegian Bokmal
Default                                  : No
Forced                                   : No
Text #25
ID                                       : 27
Format                                   : UTF-8
Codec ID                                 : S_TEXT/UTF8
Codec ID/Info                            : UTF-8 Plain Text
Duration                                 : 1 h 32 min
Bit rate                                 : 70 b/s
Frame rate                               : 0.291 FPS
Count of elements                        : 1624
Stream size                              : 47.8 KiB (0%)
Language                                 : Dutch
Default                                  : No
Forced                                   : No
Text #26
ID                                       : 28
Format                                   : UTF-8
Codec ID                                 : S_TEXT/UTF8
Codec ID/Info                            : UTF-8 Plain Text
Duration                                 : 1 h 32 min
Bit rate                                 : 76 b/s
Frame rate                               : 0.291 FPS
Count of elements                        : 1623
Stream size                              : 52.3 KiB (0%)
Language                                 : Polish
Default                                  : No
Forced                                   : No
Text #27
ID                                       : 29
Format                                   : UTF-8
Codec ID                                 : S_TEXT/UTF8
Codec ID/Info                            : UTF-8 Plain Text
Duration                                 : 1 h 32 min
Bit rate                                 : 77 b/s
Frame rate                               : 0.290 FPS
Count of elements                        : 1620
Stream size                              : 52.5 KiB (0%)
Language                                 : Romanian
Default                                  : No
Forced                                   : No
Text #28
ID                                       : 30
Format                                   : UTF-8
Codec ID                                 : S_TEXT/UTF8
Codec ID/Info                            : UTF-8 Plain Text
Duration                                 : 1 h 32 min
Bit rate                                 : 125 b/s
Frame rate                               : 0.292 FPS
Count of elements                        : 1627
Stream size                              : 85.6 KiB (0%)
Language                                 : Russian
Default                                  : No
Forced                                   : No
Text #29
ID                                       : 31
Format                                   : UTF-8
Codec ID                                 : S_TEXT/UTF8
Codec ID/Info                            : UTF-8 Plain Text
Duration                                 : 1 h 32 min
Bit rate                                 : 76 b/s
Frame rate                               : 0.291 FPS
Count of elements                        : 1625
Stream size                              : 51.8 KiB (0%)
Title                                    : Sweden
Language                                 : Swedish
Default                                  : No
Forced                                   : No
Text #30
ID                                       : 32
Format                                   : UTF-8
Codec ID                                 : S_TEXT/UTF8
Codec ID/Info                            : UTF-8 Plain Text
Duration                                 : 1 h 32 min
Bit rate                                 : 191 b/s
Frame rate                               : 0.292 FPS
Count of elements                        : 1628
Stream size                              : 131 KiB (0%)
Title                                    : India
Language                                 : Tamil
Default                                  : No
Forced                                   : No
Text #31
ID                                       : 33
Format                                   : UTF-8
Codec ID                                 : S_TEXT/UTF8
Codec ID/Info                            : UTF-8 Plain Text
Duration                                 : 1 h 32 min
Bit rate                                 : 185 b/s
Frame rate                               : 0.292 FPS
Count of elements                        : 1628
Stream size                              : 126 KiB (0%)
Title                                    : India
Language                                 : Telugu
Default                                  : No
Forced                                   : No
Text #32
ID                                       : 34
Format                                   : UTF-8
Codec ID                                 : S_TEXT/UTF8
Codec ID/Info                            : UTF-8 Plain Text
Duration                                 : 1 h 32 min
Bit rate                                 : 189 b/s
Frame rate                               : 0.292 FPS
Count of elements                        : 1628
Stream size                              : 129 KiB (0%)
Language                                 : Thai
Default                                  : No
Forced                                   : No
Text #33
ID                                       : 35
Format                                   : UTF-8
Codec ID                                 : S_TEXT/UTF8
Codec ID/Info                            : UTF-8 Plain Text
Duration                                 : 1 h 32 min
Bit rate                                 : 74 b/s
Frame rate                               : 0.291 FPS
Count of elements                        : 1625
Stream size                              : 50.7 KiB (0%)
Language                                 : Turkish
Default                                  : No
Forced                                   : No
Text #34
ID                                       : 36
Format                                   : UTF-8
Codec ID                                 : S_TEXT/UTF8
Codec ID/Info                            : UTF-8 Plain Text
Duration                                 : 1 h 32 min
Bit rate                                 : 120 b/s
Frame rate                               : 0.291 FPS
Count of elements                        : 1624
Stream size                              : 82.2 KiB (0%)
Title                                    : Ukraine
Language                                 : Ukrainian
Default                                  : No
Forced                                   : No
Text #35
ID                                       : 37
Format                                   : UTF-8
Codec ID                                 : S_TEXT/UTF8
Codec ID/Info                            : UTF-8 Plain Text
Duration                                 : 1 h 32 min
Bit rate                                 : 99 b/s
Frame rate                               : 0.291 FPS
Count of elements                        : 1626
Stream size                              : 67.8 KiB (0%)
Title                                    : Vietnam
Language                                 : Vietnamese
Default                                  : No
Forced                                   : No
部分资源为软字幕,移动端推荐播放器:MxPlayer,nPlayer,infuse ,其他播放器请自行尝试。
部分资源为软字幕,电脑端推荐播放器:PotPlayer,完美解码,KMPLAYER,其他播放器请自行尝试。






~~~~~~~~~~~~~~~~~~~~~~~~~~~~~~~~~~~~~~~~~
[2023][其它][喜剧][WEB-1080P]O Primeiro Natal do Mundo[简繁英字幕].Worlds.First.Christmas.2023.1080p.AMZN.WEB-DL.D

【文件列表】:


Worlds.First.Christmas.2023.1080p.AMZN.WEB-DL.DDP.5.1.H.264-DreamHD.



【下载地址列表】:


游客
文件下载链接就在这里,在您回复评论成功后才能显示。
请勿回复无意义的灌水内容。


下拉页面到最底部回复或者【点击此处快捷回复】,回复后返回此处即可查看下载链接。
如您没注册本站会员,可以点击注册本站,注册后即可回复下载。



软字幕无法在截图上展现,HDR版本/杜比视界版本截图会出现颜色异常,请使用支持的设备播放!






[img][/img]






[img][/img]

(HDR版本/杜比视界版本,截图会出现颜色异常,请使用支持的设备播放)

小贴士:【影视自媒体解说文案请移步:夏至文案解说网 www.xiazhi.vip

上一篇:[2018][欧美][动作][WEB-4K]古墓丽影:源起之战[HDR/杜比视界双版本][国英多音轨/中文字幕/特效字幕].2018.Bluray.2160p.TrueHD7.1.DoVi.HDR.x26
下一篇:[2023][大陆][喜剧][WEB-4K]前任4:英年早婚[60帧率版本][国语音轨/中文字幕].The.Ex-Files.4.Marriage.Plan.2023.60FPS.2160p.WEB-DL
回复

使用道具 举报

您需要登录后才可以回帖 登录 | 立即注册

本版积分规则

Archiver|手机版|小众纪录片影视聚合

GMT+8, 2024-7-16 23:54 , Processed in 0.129886 second(s), 13 queries , Gzip On, Redis On.

Powered by 小众纪录片影视聚合 @2010-2023

Copyright © 2010-2024, https://www.xzjlp.com/.


免责说明:本站所有内容链接、图文介绍等均来自于互联网网友分享,本站仅支持web页面展示和文字介绍,绝不提供在线观看和存储服务,也不参与录制、上传、压片。若本站收录内容无意侵犯贵司版权,请发邮件到【a885185#163.com】联系本站,我们将在第一时间删除侵权内容。谢谢!

快速回复 返回顶部 返回列表