小众纪录片影视聚合

 找回密码
 立即注册
查看: 7|回复: 0

[蓝光电影] [2023][大陆][喜剧][WEB-4K]前任4:英年早婚[国语音轨/中文字幕].The.Ex-Files.4.Marriage.Plan.2023.2160p.WEB-DL.H265.10bit.DD

[复制链接]

113万

主题

113万

帖子

113万

积分

超级版主

Rank: 8Rank: 8

积分
1134816
发表于 2024-7-9 21:08:10 | 显示全部楼层 |阅读模式


[2023][大陆][喜剧][WEB-4K]前任4:英年早婚[国语音轨/中文字幕].The.Ex-Files.4.Marriage.Plan.2023.2160p.WEB-DL.H265.10bit.DD

完整标题:前任4:英年早婚[国语音轨/中文字幕].The.Ex-Files.4.Marriage.Plan.2023.2160p.WEB-DL.H265.10bit.DDP5.1-GPTHD 18.93GB
◎标  题 前任4:英年早婚
◎译  名 前任4 / 分手清单 / 前任:分手清单 / 前任攻略4
◎年  代 2023
◎产  地 中国大陆
◎类  别 喜剧 / 爱情
◎语  言 汉语普通话
◎上映日期 2023-09-28(中国大陆)
◎IMDb评分 5.7/10 (71人评价)
◎IMDb链接 https://www.imdb.com/title/tt26911640/
◎豆瓣评分 5.9/10 (72484人评价)
◎豆瓣链接 https://movie.douban.com/subject/35358443/
◎片  长 129分钟
◎导  演 田羽生 Yusheng Tian
◎编  剧 大宽 Da Kuan
       大广 Da Guang
       田羽生 Yusheng Tian
◎演  员 韩庚 Han geng
       郑恺 Kai Zheng
       于文文 Kelly Yu
       刘雅瑟 Yase Liu
       曾梦雪 Mengxue Zeng
       张天爱 Tian'ai Zhang
       朱颜曼滋 Yanmanzi Zhu
       罗米 Mi Luo
       冯铭潮 Mingchao Feng
       药一樍 Yize Yao
       于惠 Hui Yu
       苗艺博 Yibo Miao
       田羽生 Yusheng Tian
       张栾 Luan Zhang
       徐心瑭 Rhea
◎简  介
    孟云(韩庚 饰)和余飞(郑恺 饰)这对难兄难弟,在历经情场的洗礼之后,终于来到了谈婚论嫁的年纪。正在经历“分手后遗症”的孟云,面对家人的催促,带着“为什么要结婚”的疑问,开始寻找真爱;而余飞和女友丁点(曾梦雪 饰)为了应对结婚后即将产生的各种情况,自创了“结婚冷静期”,将婚后生活提前预演。两兄弟开启一场全新的爱情挑战……##### MediaInfo ######
General
Unique ID                                : 82839883153431781580190982504690095020 (0x3E52619367B4F05F560E2D9C620E13AC)
Complete name                            : 前任4.英年早婚.The.Ex-Files.4.Marriage.Plan.2023.2160p.WEB-DL.H265.10bit.DDP5.1-GPTHD.mkv
Duration                                 : 2 h 8 min
Overall bit rate                         : 21.1 Mb/s
Video
ID                                       : 1
Format                                   : HEVC
Format/Info                              : High Efficiency Video Coding
Format profile                           : Main [email protected]@Main
Codec ID                                 : V_MPEGH/ISO/HEVC
Duration                                 : 2 h 8 min
Bit rate                                 : 19.8 Mb/s
Width                                    : 3 840 pixels
Height                                   : 1 608 pixels
Display aspect ratio                     : 2.40:1
Frame rate mode                          : Constant
Frame rate                               : 24.000 FPS
Color space                              : YUV
Chroma subsampling                       : 4:2:0
Bit depth                                : 10 bits
Bits/(Pixel*Frame)                       : 0.134
Stream size                              : 17.8 GiB (94%)
Default                                  : Yes
Forced                                   : No
Color range                              : Limited
Color primaries                          : BT.709
Transfer characteristics                 : BT.709
Matrix coefficients                      : BT.709
Audio #1
ID                                       : 2
Format                                   : E-AC-3
Format/Info                              : Enhanced AC-3
Commercial name                          : Dolby Digital Plus
Codec ID                                 : A_EAC3
Duration                                 : 2 h 8 min
Bit rate mode                            : Constant
Bit rate                                 : 448 kb/s
Channel(s)                               : 6 channels
Channel layout                           : L R C LFE Ls Rs
Sampling rate                            : 48.0 kHz
Frame rate                               : 31.250 FPS (1536 SPF)
Compression mode                         : Lossy
Stream size                              : 412 MiB (2%)
Title                                    : 国语·杜比环绕声
Language                                 : Chinese
Service kind                             : Complete Main
Default                                  : No
Forced                                   : No
Audio #2
ID                                       : 3
Format                                   : AAC LC
Format/Info                              : Advanced Audio Codec Low Complexity
Codec ID                                 : A_AAC-2
Duration                                 : 2 h 8 min
Bit rate                                 : 256 kb/s
Channel(s)                               : 6 channels
Channel layout                           : C L R Ls Rs LFE
Sampling rate                            : 44.1 kHz
Frame rate                               : 43.066 FPS (1024 SPF)
Compression mode                         : Lossy
Stream size                              : 236 MiB (1%)
Title                                    : 国语·环绕声
Language                                 : Chinese
Default                                  : No
Forced                                   : No
Audio #3
ID                                       : 4
Format                                   : E-AC-3
Format/Info                              : Enhanced AC-3
Commercial name                          : Dolby Digital Plus
Codec ID                                 : A_EAC3
Duration                                 : 2 h 8 min
Bit rate mode                            : Constant
Bit rate                                 : 256 kb/s
Channel(s)                               : 2 channels
Channel layout                           : L R
Sampling rate                            : 48.0 kHz
Frame rate                               : 31.250 FPS (1536 SPF)
Compression mode                         : Lossy
Stream size                              : 236 MiB (1%)
Title                                    : 国语·杜比音效
Language                                 : Chinese
Service kind                             : Complete Main
Default                                  : No
Forced                                   : No
Audio #4
ID                                       : 5
Format                                   : AAC LC
Format/Info                              : Advanced Audio Codec Low Complexity
Codec ID                                 : A_AAC-2
Duration                                 : 2 h 8 min
Bit rate                                 : 256 kb/s
Channel(s)                               : 2 channels
Channel layout                           : L R
Sampling rate                            : 44.1 kHz
Frame rate                               : 43.066 FPS (1024 SPF)
Compression mode                         : Lossy
Stream size                              : 236 MiB (1%)
Title                                    : 国语
Language                                 : Chinese
Default                                  : No
Forced                                   : No
部分资源为软字幕,移动端推荐播放器:MxPlayer,nPlayer,infuse ,其他播放器请自行尝试。
部分资源为软字幕,电脑端推荐播放器:PotPlayer,完美解码,KMPLAYER,其他播放器请自行尝试。






~~~~~~~~~~~~~~~~~~~~~~~~~~~~~~~~~~~~~~~~~
[2023][大陆][喜剧][WEB-4K]前任4:英年早婚[国语音轨/中文字幕].The.Ex-Files.4.Marriage.Plan.2023.2160p.WEB-DL.H265.10bit.DD

【文件列表】:


The.Ex-Files.4.Marriage.Plan.2023.2160p.WEB-DL.H265.10bit.DDP5.1-GPTHD.



【下载地址列表】:


游客
文件下载链接就在这里,在您回复评论成功后才能显示。
请勿回复无意义的灌水内容。


下拉页面到最底部回复或者【点击此处快捷回复】,回复后返回此处即可查看下载链接。
如您没注册本站会员,可以点击注册本站,注册后即可回复下载。



软字幕无法在截图上展现,HDR版本/杜比视界版本截图会出现颜色异常,请使用支持的设备播放!






[img][/img]






[img][/img]

(HDR版本/杜比视界版本,截图会出现颜色异常,请使用支持的设备播放)

小贴士:【影视自媒体解说文案请移步:夏至文案解说网 www.xiazhi.vip

上一篇:[2023][大陆][喜剧][WEB-4K]前任4:英年早婚[120帧率版本][国语音轨/中文字幕].The.Ex-Files.4.Marriage.Plan.2023.120FPS.2160p.WEB-
下一篇:[2023][大陆][喜剧][WEB-4K]前任4:英年早婚[国语配音/中文字幕].The.Ex-Files.4.Marriage.Plan.2023.2160p.WEB-DL.H265.DDP5.1-S
回复

使用道具 举报

您需要登录后才可以回帖 登录 | 立即注册

本版积分规则

Archiver|手机版|小众纪录片影视聚合

GMT+8, 2024-7-22 07:38 , Processed in 0.088412 second(s), 13 queries , Gzip On, Redis On.

Powered by 小众纪录片影视聚合 @2010-2023

Copyright © 2010-2024, https://www.xzjlp.com/.


免责说明:本站所有内容链接、图文介绍等均来自于互联网网友分享,本站仅支持web页面展示和文字介绍,绝不提供在线观看和存储服务,也不参与录制、上传、压片。若本站收录内容无意侵犯贵司版权,请发邮件到【a885185#163.com】联系本站,我们将在第一时间删除侵权内容。谢谢!

快速回复 返回顶部 返回列表