小众纪录片影视聚合

 找回密码
 立即注册
查看: 6|回复: 0

[蓝光电影] [2021][欧美][动作][BD-1080P]人之怒[中文字幕/特效字幕].Wrath.of.Man.2021.BluRay.1080p.DTS-HDMA5.1.x264- 19.38GB

[复制链接]

112万

主题

112万

帖子

112万

积分

超级版主

Rank: 8Rank: 8

积分
1128817
发表于 2024-7-9 21:08:49 | 显示全部楼层 |阅读模式


[2021][欧美][动作][BD-1080P]人之怒[中文字幕/特效字幕].Wrath.of.Man.2021.BluRay.1080p.DTS-HDMA5.1.x264- 19.38GB

完整标题:人之怒[中文字幕/特效字幕].Wrath.of.Man.2021.BluRay.1080p.DTS-HDMA5.1.x264-DreamHD 19.38GB
◎标  题 人之怒
◎译  名 玩命钞劫(台) / 运钞车 / Cash Truck
◎片  名 Wrath of Man
◎年  代 2021
◎产  地 美国 / 英国
◎类  别 动作 / 犯罪
◎语  言 英语
◎上映日期 2021-05-10(中国大陆) / 2021-04-22(俄罗斯) / 2021-05-07(美国)
◎IMDb评分 7.1/10 (184712人评价)
◎IMDb链接 https://www.imdb.com/title/tt11083552/
◎豆瓣评分 6.7/10 (150538人评价)
◎豆瓣链接 https://movie.douban.com/subject/27046740/
◎片  长 118分钟 / 115分钟(中国大陆)
◎导  演 盖·里奇 Guy Ritchie
◎编  剧 尼古拉斯·布赫里夫 Nicolas Boukhrief
       艾瑞克·贝斯纳 Éric Besnard
       盖·里奇 Guy Ritchie
       马恩·戴维斯 Marn Davies
       伊凡·阿特金森 Ivan Atkinson
◎演  员 杰森·斯坦森 Jason Statham
       霍特·麦克卡兰尼 Holt McCallany
       罗奇·威廉姆斯 Rocci Williams
       乔什·哈奈特 Josh Hartnett
       杰弗里·多诺万 Jeffrey Donovan
       斯科特·伊斯特伍德 Scott Eastwood
       安迪·加西亚 Andy Garcia
       道比·欧帕瑞 Deobia Oparei
       拉兹·阿隆索 Laz Alonso
       劳尔·卡斯提洛 Raúl Castillo
       克里斯·雷利 Chris Reilly
       埃迪·马森 Eddie Marsan
       尼芙·阿尔格 Niamh Algar
       塔格·墨菲 Tadhg Murphy
       马克·阿诺德 Mark Arnold
       杰拉尔德·泰勒 Gerald Tyler
       亚历克斯·费恩斯 Alex Ferns
       乔什·柯德雷 Josh Cowdery
       杰森·王 Jason Wong
       罗伯·德兰尼 Rob Delaney
       伊莱·布朗 Eli Brown
       凯瑞·莎勒 Kerry Shale
       卡梅伦·杰克 Cameron Jack
       达雷尔·席尔瓦 Darrell D'Silva
       巴布斯·奥卢桑莫昆 Babs Olusanmokun
       多米尼克·托马斯 Dominique Thomas
       琳·勒内 Lyne Renee
       蕾贝卡·卡尔德 Rebecca Calder
       伊芙·麦凯林 Eve Macklin
       詹姆斯·沃伦 James Warren
       波兹·马龙 Post Malone
       史蒂威·戴维斯 Stevee Davies
       蒙塔娜·曼宁 Montana Manning
       安东尼·莫利纳利 Anthony Molinari
◎简  介
    在一次全副武装的运钞车劫案中,梅斯先生(杰森·斯坦森 饰)的儿子作为案发目击者被劫匪杀害。怒火中烧的梅斯为报丧子之仇,化身H卧底成为运钞车安保,试图找出杀害他儿子的劫匪以及与劫匪暗中勾结的安保公司内鬼。
点击图片可查看大图
软字幕无法在截图上展现,HDR版本/杜比视界版本截图会出现颜色异常,请使用支持的设备播放!
##### MediaInfo ######
General
Unique ID                                : 184734244764220152399389614013267004996 (0x8AFA8578CCE4923B2E8B0ECB4C274E44)
Complete name                            : Wrath.of.Man.2021.BluRay.1080p.DTS-HDMA5.1.x264-DreamHD.mkv
Duration                                 : 1 h 58 min
Overall bit rate mode                    : Variable
Overall bit rate                         : 23.3 Mb/s
Video
ID                                       : 1
Format                                   : AVC
Format/Info                              : Advanced Video Codec
Format profile                           : [email protected]
Format settings                          : CABAC / 4 Ref Frames
Format settings, CABAC                   : Yes
Format settings, Reference frames        : 4 frames
Codec ID                                 : V_MPEG4/ISO/AVC
Duration                                 : 1 h 58 min
Bit rate                                 : 19.4 Mb/s
Width                                    : 1 920 pixels
Height                                   : 804 pixels
Display aspect ratio                     : 2.40:1
Frame rate mode                          : Constant
Frame rate                               : 23.976 (24000/1001) FPS
Color space                              : YUV
Chroma subsampling                       : 4:2:0
Bit depth                                : 8 bits
Scan type                                : Progressive
Bits/(Pixel*Frame)                       : 0.525
Stream size                              : 16.1 GiB (83%)
Writing library                          : x264 core 157 r2867+150 7e91e0e t_mod_Custom_2 [8-bit@all X86_64]
Encoding settings                        : cabac=1 / ref=4 / deblock=1:-3:-3 / analyse=0x3:0x133 / me=umh / subme=11 / psy=1 / fade_compensate=0.00 / psy_rd=0.95:0.10 / mixed_ref=1 / me_range=48 / chroma_me=1 / trellis=2 / 8x8dct=1 / cqm=0 / deadzone=21,11 / fast_pskip=0 / chroma_qp_offset=-4 / threads=25 / lookahead_threads=6 / sliced_threads=0 / nr=0 / decimate=1 / interlaced=0 / bluray_compat=0 / constrained_intra=0 / fgo=0 / bframes=16 / b_pyramid=2 / b_adapt=2 / b_bias=0 / direct=3 / weightb=1 / open_gop=0 / weightp=2 / keyint=250 / keyint_min=23 / scenecut=40 / intra_refresh=0 / rc_lookahead=60 / rc=crf / mbtree=0 / crf=18.0000 / qcomp=0.70 / qpmin=0:0:0 / qpmax=69:69:69 / qpstep=4 / vbv_maxrate=35000 / vbv_bufsize=35000 / crf_max=0.0 / nal_hrd=none / filler=0 / ip_ratio=1.40 / pb_ratio=1.30 / aq=3:1.00 / aq-sensitivity=10.00 / aq-factor=1.00:1.00:1.00 / aq2=0 / aq3=2:[0.50:0.50]:[0.50:0.50]:[0.50:0.50]:[0.50:0.50] / aq3-sensitivity=10.00 / aq3-factor=[1.00:1.00]:[1.00:1.00]:[1.00:1.00] / aq3-boundary=192:64:24
Language                                 : English
Default                                  : Yes
Forced                                   : No
Audio
ID                                       : 2
Format                                   : DTS XLL
Format/Info                              : Digital Theater Systems
Commercial name                          : DTS-HD Master Audio
Codec ID                                 : A_DTS
Duration                                 : 1 h 58 min
Bit rate mode                            : Variable
Bit rate                                 : 3 673 kb/s
Channel(s)                               : 6 channels
Channel layout                           : C L R Ls Rs LFE
Sampling rate                            : 48.0 kHz
Frame rate                               : 93.750 FPS (512 SPF)
Bit depth                                : 24 bits
Compression mode                         : Lossless
Stream size                              : 3.05 GiB (16%)
Language                                 : English
Default                                  : Yes
Forced                                   : No
Text #1
ID                                       : 3
Format                                   : PGS
Muxing mode                              : zlib
Codec ID                                 : S_HDMV/PGS
Codec ID/Info                            : Picture based subtitle format used on BDs/HD-DVDs
Duration                                 : 1 h 51 min
Bit rate                                 : 81.4 kb/s
Frame rate                               : 0.979 FPS
Count of elements                        : 6558
Stream size                              : 65.0 MiB (0%)
Language                                 : Chinese
Default                                  : Yes
Forced                                   : No
Text #2
ID                                       : 4
Format                                   : PGS
Muxing mode                              : zlib
Codec ID                                 : S_HDMV/PGS
Codec ID/Info                            : Picture based subtitle format used on BDs/HD-DVDs
Duration                                 : 1 h 51 min
Bit rate                                 : 82.4 kb/s
Frame rate                               : 0.979 FPS
Count of elements                        : 6558
Stream size                              : 65.8 MiB (0%)
Language                                 : Chinese
Default                                  : Yes
Forced                                   : No
Text #3
ID                                       : 5
Format                                   : PGS
Muxing mode                              : zlib
Codec ID                                 : S_HDMV/PGS
Codec ID/Info                            : Picture based subtitle format used on BDs/HD-DVDs
Duration                                 : 1 h 51 min
Bit rate                                 : 110 kb/s
Frame rate                               : 0.979 FPS
Count of elements                        : 6558
Stream size                              : 87.9 MiB (0%)
Language                                 : Chinese
Default                                  : Yes
Forced                                   : No
Text #4
ID                                       : 6
Format                                   : PGS
Muxing mode                              : zlib
Codec ID                                 : S_HDMV/PGS
Codec ID/Info                            : Picture based subtitle format used on BDs/HD-DVDs
Duration                                 : 1 h 51 min
Bit rate                                 : 111 kb/s
Frame rate                               : 0.979 FPS
Count of elements                        : 6558
Stream size                              : 88.7 MiB (0%)
Language                                 : Chinese
Default                                  : Yes
Forced                                   : No
Text #5
ID                                       : 7
Format                                   : PGS
Muxing mode                              : zlib
Codec ID                                 : S_HDMV/PGS
Codec ID/Info                            : Picture based subtitle format used on BDs/HD-DVDs
Duration                                 : 1 h 51 min
Bit rate                                 : 36.2 kb/s
Frame rate                               : 0.453 FPS
Count of elements                        : 3020
Stream size                              : 28.8 MiB (0%)
Language                                 : English
Default                                  : Yes
Forced                                   : No
Menu
00:00:00.000                             : :绗?01 绔?
00:05:55.188                             : :绗?02 绔?
00:13:08.121                             : :绗?03 绔?
00:19:51.524                             : :绗?04 绔?
00:29:30.435                             : :绗?05 绔?
00:38:33.228                             : :绗?06 绔?
00:47:33.684                             : :绗?07 绔?
00:55:34.998                             : :绗?08 绔?
01:02:41.299                             : :绗?09 绔?
01:10:36.107                             : :绗?10 绔?
01:19:03.530                             : :绗?11 绔?
01:25:57.819                             : :绗?12 绔?
01:34:15.358                             : :绗?13 绔?
01:44:04.989                             : :绗?14 绔?
01:53:03.986                             : :绗?15 绔?
部分资源为软字幕,移动端推荐播放器:MxPlayer,nPlayer,infuse ,其他播放器请自行尝试。
部分资源为软字幕,电脑端推荐播放器:PotPlayer,完美解码,KMPLAYER,其他播放器请自行尝试。






~~~~~~~~~~~~~~~~~~~~~~~~~~~~~~~~~~~~~~~~~
[2021][欧美][动作][BD-1080P]人之怒[中文字幕/特效字幕].Wrath.of.Man.2021.BluRay.1080p.DTS-HDMA5.1.x264- 19.38GB

【文件列表】:


Wrath.of.Man.2021.BluRay.1080p.DTS-HDMA5.1.x264-DreamHD.



【下载地址列表】:


游客
文件下载链接就在这里,在您回复评论成功后才能显示。
请勿回复无意义的灌水内容。


下拉页面到最底部回复或者【点击此处快捷回复】,回复后返回此处即可查看下载链接。
如您没注册本站会员,可以点击注册本站,注册后即可回复下载。



软字幕无法在截图上展现,HDR版本/杜比视界版本截图会出现颜色异常,请使用支持的设备播放!






[img][/img]






[img][/img]

(HDR版本/杜比视界版本,截图会出现颜色异常,请使用支持的设备播放)

小贴士:【影视自媒体解说文案请移步:夏至文案解说网 www.xiazhi.vip

上一篇:[更 早][其它][剧情][BD-1080P]小驴比姆[简繁英字幕].Bim.the.Little.Donkey.1951.CC.1080p.BluRay.x264.FLAC.1.0- 6.66
下一篇:[2009][欧美][动作][BD-1080P]金刚狼[国英多音轨].X-Men.Origins.Wolverine.2009.Bluray.1080p.DTS.2Audio.x264- 8.2
回复

使用道具 举报

您需要登录后才可以回帖 登录 | 立即注册

本版积分规则

Archiver|手机版|小众纪录片影视聚合

GMT+8, 2024-7-17 00:27 , Processed in 0.311359 second(s), 13 queries , Gzip On, Redis On.

Powered by 小众纪录片影视聚合 @2010-2023

Copyright © 2010-2024, https://www.xzjlp.com/.


免责说明:本站所有内容链接、图文介绍等均来自于互联网网友分享,本站仅支持web页面展示和文字介绍,绝不提供在线观看和存储服务,也不参与录制、上传、压片。若本站收录内容无意侵犯贵司版权,请发邮件到【a885185#163.com】联系本站,我们将在第一时间删除侵权内容。谢谢!

快速回复 返回顶部 返回列表