小众纪录片影视聚合

 找回密码
 立即注册
查看: 4|回复: 0

[蓝光电影] [2022][欧美][悬疑][BD-1080P]X[中英字幕].X.2022.BluRay.1080p.DTS-HDMA5.1.x264- 11.62GB

[复制链接]

116万

主题

116万

帖子

116万

积分

超级版主

Rank: 8Rank: 8

积分
1167997
发表于 2024-7-9 21:08:57 | 显示全部楼层 |阅读模式


[2022][欧美][悬疑][BD-1080P]X[中英字幕].X.2022.BluRay.1080p.DTS-HDMA5.1.x264- 11.62GB

完整标题:X[中英字幕].X.2022.BluRay.1080p.DTS-HDMA5.1.x264-DreamHD 11.62GB
◎标  题 X
◎译  名 恐怖X档案(台)
◎年  代 2022
◎产  地 美国 / 加拿大
◎类  别 悬疑 / 惊悚 / 恐怖
◎语  言 英语
◎上映日期 2022-03-13(西南偏南电影节) / 2022-03-18(美国)
◎IMDb评分 6.5/10 (157304人评价)
◎IMDb链接 https://www.imdb.com/title/tt13560574/
◎豆瓣评分 6.1/10 (41820人评价)
◎豆瓣链接 https://movie.douban.com/subject/35240920/
◎片  长 105分钟
◎导  演 缇·威斯特 Ti West
◎编  剧 缇·威斯特 Ti West
◎演  员 米娅·高斯 Mia Goth
       珍娜·奥尔特加 Jenna Ortega
       布里特妮·斯诺 Brittany Snow
       卡迪小子 Kid Cudi
       马丁·亨德森 Martin Henderson
       欧文·坎贝尔 Owen Campbell
       史蒂芬·乌瑞 Stephen Ure
       詹姆斯·盖林 James Gaylyn
       西蒙·普拉斯特 Simon Prast
       吉奥夫·多兰 Geoff Dolan
       马修·塞维尔 Matthew Saville
       布莱恩妮·斯基林顿 Bryony Skillington
◎简  介
    麦克西恩(米娅·高斯 Mia Goth 饰)是一个做梦都想要出名的女孩,可现实是,她沉浸于毒品带来的幻觉和快感之中,并且即将出演一部由她的男友(马丁·亨德森 Martin Henderson 饰)指导的色情片。为了拍摄,麦克西恩和男友、摄影RJ(欧文·坎贝尔 Owen Campbell 饰)、场务洛林(珍娜·奥尔特加 Jenna Ortega 饰),以及另外的一对主演杰克森(卡迪小子 Kid Cudi 饰)、波比(布兰特妮·斯诺 Brittany Snow 饰)驱车来到了一幢地处偏远的宅子处。                                    宅子的所有者是名叫霍华德(史蒂芬·乌瑞 Stephen Ure 饰)的老人,他对于这帮年轻人的到来似乎并不欢迎。尽管如此,影片还是按照计划开拍了,在此过程中,年轻的肉体和浓烈的荷尔蒙似乎唤醒了深藏在霍华德妻子体内的某种欲望。
点击图片可查看大图
软字幕无法在截图上展现,HDR版本/杜比视界版本截图会出现颜色异常,请使用支持的设备播放!
##### MediaInfo ######
General
Unique ID                                : 282025552623549915651900724556011536264 (0xD42C254BCF2229141DFE63D25FB5FF88)
Complete name                            : X.2022.BluRay.1080p.DTS-HDMA5.1.x264-DreamHD.mkv
Duration                                 : 1 h 46 min
Overall bit rate mode                    : Variable
Overall bit rate                         : 15.6 Mb/s
Video
ID                                       : 1
Format                                   : AVC
Format/Info                              : Advanced Video Codec
Format profile                           : [email protected]
Format settings                          : CABAC / 4 Ref Frames
Format settings, CABAC                   : Yes
Format settings, Reference frames        : 4 frames
Codec ID                                 : V_MPEG4/ISO/AVC
Duration                                 : 1 h 23 min
Bit rate                                 : 16.0 Mb/s
Width                                    : 1 920 pixels
Height                                   : 1 012 pixels
Display aspect ratio                     : 1.897
Frame rate mode                          : Constant
Frame rate                               : 23.976 (24000/1001) FPS
Color space                              : YUV
Chroma subsampling                       : 4:2:0
Bit depth                                : 8 bits
Scan type                                : Progressive
Bits/(Pixel*Frame)                       : 0.344
Stream size                              : 9.34 GiB (80%)
Writing library                          : x264 core 157 r2867+150 7e91e0e t_mod_Custom_2 [8-bit@all X86_64]
Encoding settings                        : cabac=1 / ref=4 / deblock=1:-3:-3 / analyse=0x3:0x133 / me=umh / subme=11 / psy=1 / fade_compensate=0.00 / psy_rd=0.90:0.10 / mixed_ref=1 / me_range=64 / chroma_me=1 / trellis=2 / 8x8dct=1 / cqm=0 / deadzone=21,11 / fast_pskip=0 / chroma_qp_offset=-4 / threads=32 / lookahead_threads=5 / sliced_threads=0 / nr=0 / decimate=1 / interlaced=0 / bluray_compat=0 / constrained_intra=0 / fgo=0 / bframes=8 / b_pyramid=2 / b_adapt=2 / b_bias=0 / direct=3 / weightb=1 / open_gop=0 / weightp=2 / keyint=250 / keyint_min=23 / scenecut=40 / intra_refresh=0 / rc_lookahead=60 / rc=crf / mbtree=0 / crf=18.0000 / qcomp=0.70 / qpmin=0:0:0 / qpmax=69:69:69 / qpstep=4 / vbv_maxrate=35000 / vbv_bufsize=35000 / crf_max=0.0 / nal_hrd=none / filler=0 / ip_ratio=1.40 / pb_ratio=1.30 / aq=3:1.00 / aq-sensitivity=10.00 / aq-factor=1.00:1.00:1.00 / aq2=0 / aq3=0
Language                                 : Chinese
Default                                  : Yes
Forced                                   : No
Audio
ID                                       : 2
Format                                   : DTS XLL
Format/Info                              : Digital Theater Systems
Commercial name                          : DTS-HD Master Audio
Codec ID                                 : A_DTS
Duration                                 : 1 h 46 min
Bit rate mode                            : Variable
Bit rate                                 : 2 982 kb/s
Channel(s)                               : 6 channels
Channel layout                           : C L R Ls Rs LFE
Sampling rate                            : 48.0 kHz
Frame rate                               : 93.750 FPS (512 SPF)
Bit depth                                : 24 bits
Compression mode                         : Lossless
Stream size                              : 2.21 GiB (19%)
Default                                  : Yes
Forced                                   : No
Text #1
ID                                       : 3
Format                                   : PGS
Muxing mode                              : zlib
Codec ID                                 : S_HDMV/PGS
Codec ID/Info                            : Picture based subtitle format used on BDs/HD-DVDs
Duration                                 : 1 h 38 min
Bit rate                                 : 22.5 kb/s
Frame rate                               : 0.245 FPS
Count of elements                        : 1457
Stream size                              : 15.9 MiB (0%)
Language                                 : Chinese
Default                                  : Yes
Forced                                   : No
Text #2
ID                                       : 4
Format                                   : PGS
Muxing mode                              : zlib
Codec ID                                 : S_HDMV/PGS
Codec ID/Info                            : Picture based subtitle format used on BDs/HD-DVDs
Duration                                 : 1 h 38 min
Bit rate                                 : 22.2 kb/s
Frame rate                               : 0.245 FPS
Count of elements                        : 1457
Stream size                              : 15.7 MiB (0%)
Language                                 : Chinese
Default                                  : Yes
Forced                                   : No
Text #3
ID                                       : 5
Format                                   : PGS
Muxing mode                              : zlib
Codec ID                                 : S_HDMV/PGS
Codec ID/Info                            : Picture based subtitle format used on BDs/HD-DVDs
Duration                                 : 1 h 38 min
Bit rate                                 : 42.6 kb/s
Frame rate                               : 0.245 FPS
Count of elements                        : 1457
Stream size                              : 30.2 MiB (0%)
Language                                 : Chinese
Default                                  : Yes
Forced                                   : No
Text #4
ID                                       : 6
Format                                   : PGS
Muxing mode                              : zlib
Codec ID                                 : S_HDMV/PGS
Codec ID/Info                            : Picture based subtitle format used on BDs/HD-DVDs
Duration                                 : 1 h 38 min
Bit rate                                 : 42.4 kb/s
Frame rate                               : 0.245 FPS
Count of elements                        : 1457
Stream size                              : 30.0 MiB (0%)
Language                                 : Chinese
Default                                  : Yes
Forced                                   : No
Text #5
ID                                       : 7
Format                                   : PGS
Muxing mode                              : zlib
Codec ID                                 : S_HDMV/PGS
Codec ID/Info                            : Picture based subtitle format used on BDs/HD-DVDs
Duration                                 : 1 h 43 min
Bit rate                                 : 25.2 kb/s
Frame rate                               : 0.326 FPS
Count of elements                        : 2026
Stream size                              : 18.7 MiB (0%)
Language                                 : English
Default                                  : Yes
Forced                                   : No
Menu
00:00:00.000                             : en:第 01 章
00:04:41.448                             : en:第 02 章
00:12:51.646                             : en:第 03 章
00:22:53.330                             : en:第 04 章
00:28:03.140                             : en:第 05 章
00:34:36.324                             : en:第 06 章
00:41:08.299                             : en:第 07 章
00:44:42.013                             : en:第 08 章
00:52:38.989                             : en:第 09 章
00:56:59.541                             : en:第 10 章
01:02:38.296                             : en:第 11 章
01:08:46.414                             : en:第 12 章
01:15:00.538                             : en:第 13 章
01:22:18.892                             : en:第 14 章
01:32:12.861                             : en:第 15 章
01:38:23.022                             : en:第 16 章
部分资源为软字幕,移动端推荐播放器:MxPlayer,nPlayer,infuse ,其他播放器请自行尝试。
部分资源为软字幕,电脑端推荐播放器:PotPlayer,完美解码,KMPLAYER,其他播放器请自行尝试。






~~~~~~~~~~~~~~~~~~~~~~~~~~~~~~~~~~~~~~~~~
[2022][欧美][悬疑][BD-1080P]X[中英字幕].X.2022.BluRay.1080p.DTS-HDMA5.1.x264- 11.62GB

【文件列表】:


X.2022.BluRay.1080p.DTS-HDMA5.1.x264-DreamHD.



【下载地址列表】:


游客
文件下载链接就在这里,在您回复评论成功后才能显示。
请勿回复无意义的灌水内容。


下拉页面到最底部回复或者【点击此处快捷回复】,回复后返回此处即可查看下载链接。
如您没注册本站会员,可以点击注册本站,注册后即可回复下载。



软字幕无法在截图上展现,HDR版本/杜比视界版本截图会出现颜色异常,请使用支持的设备播放!






[img][/img]






[img][/img]

(HDR版本/杜比视界版本,截图会出现颜色异常,请使用支持的设备播放)

小贴士:【影视自媒体解说文案请移步:夏至文案解说网 www.xiazhi.vip

上一篇:[2009][欧美][动作][BD-1080P]金刚狼[国英多音轨].X-Men.Origins.Wolverine.2009.Bluray.1080p.DTS.2Audio.x264- 8.2
下一篇:[2017][欧美][动作][BD-1080P]极限特工3:终极回归[国英多音轨].xXx.Return.of.Xander.Cage.2017.BluRay.1080p.Atmos.TrueHD7.1.2A
回复

使用道具 举报

您需要登录后才可以回帖 登录 | 立即注册

本版积分规则

Archiver|手机版|小众纪录片影视聚合

GMT+8, 2024-7-25 03:09 , Processed in 0.098831 second(s), 13 queries , Gzip On, Redis On.

Powered by 小众纪录片影视聚合 @2010-2023

Copyright © 2010-2024, https://www.xzjlp.com/.


免责说明:本站所有内容链接、图文介绍等均来自于互联网网友分享,本站仅支持web页面展示和文字介绍,绝不提供在线观看和存储服务,也不参与录制、上传、压片。若本站收录内容无意侵犯贵司版权,请发邮件到【a885185#163.com】联系本站,我们将在第一时间删除侵权内容。谢谢!

快速回复 返回顶部 返回列表