小众纪录片影视聚合

 找回密码
 立即注册
查看: 10|回复: 0

[蓝光电影] [2009][大陆][剧情][WEB-4K]风声[60帧率版本][高码版][国语配音/中文字幕].The.Message.2009.2160p.HQ.WEB-DL.H265.60fps.AAC-Dream

[复制链接]

110万

主题

110万

帖子

110万

积分

超级版主

Rank: 8Rank: 8

积分
1104142
发表于 4 天前 | 显示全部楼层 |阅读模式


[2009][大陆][剧情][WEB-4K]风声[60帧率版本][高码版][国语配音/中文字幕].The.Message.2009.2160p.HQ.WEB-DL.H265.60fps.AAC-Dream

完整标题:风声[60帧率版本][高码版][国语配音/中文字幕].The.Message.2009.2160p.HQ.WEB-DL.H265.60fps.AAC-DreamHD 20.83GB
◎标  题 风声
◎译  名 The Message
◎年  代 2009
◎产  地 中国大陆
◎类  别 剧情 / 惊悚 / 战争 / 犯罪
◎语  言 汉语普通话 / 日语
◎上映日期 2009-09-29(中国大陆) / 2020-07-20(中国大陆重映)
◎IMDb评分 7.4/10 (4133人评价)
◎IMDb链接 https://www.imdb.com/title/tt1434423/
◎豆瓣评分 8.4/10 (611996人评价)
◎豆瓣链接 https://movie.douban.com/subject/3734112/
◎片  长 118分钟
◎导  演 陈国富 Kuo-fu Chen
       高群书 Qunshu Gao
◎编  剧 陈国富 Kuo-fu Chen
       张家鲁 Chia-lu Chang
       麦家 Jia Mai
◎演  员 周迅 Xun Zhou
       李冰冰 Bingbing Li
       张涵予 Hanyu Zhang
       王志文 Zhiwen Wang
       黄晓明 Xiaoming Huang
       苏有朋 Alec Su
       英达 Da Ying
       石兆琪 Zhaoqi Shi
       倪大红 Dahong Ni
       段奕宏 Yihong Duan
       朱旭 Xu Zhu
       刘威葳 Vieven Liu
       张一白 Yibai Zhang
       吴刚 Gang Wu
       邓家佳 Jiajia Deng
       刘芸 Yun Liu
       爱戴 Dai Ai
       朱宏嘉 Hongjia Zhu
       来喜 Laixi
       张立 Li Zhang
       郭家铭 Jiaming Guo
       刘芊孜 Qianzi Liu
       工藤俊作 Kudo Juku
       香川耕二 Koji Kagawa
       王奕盛 Yisheng Wang
◎简  介
    1942年10月10日,汪伪政权举行了盛大的国民政府庆典。然而,一系列的军政要员遇刺事件,让身为特务处长王田香(王志文 饰)如坐针毡。在对女刺客(刘威葳 饰)的酷刑审问中,他获得了一条关键的情报——代号为老鬼的地下党已经混入了剿匪司令部。立功心切的王田香立刻向日本皇军特务机关长武田(黄晓明 饰)做了汇报。二人随即在裘庄布下了一个圈套,意图通过放出假消息逼老鬼现身。                                    在被怀疑的对象中,有司令的侍从官白小年(苏有朋 饰)、军机处长金生火(英达 饰)、剿匪大队长吴志国(张涵予 饰)、译电组组长李宁玉(李冰冰 饰)以及行政收发专员顾晓梦(周迅 饰)。在怀疑与排查中,武田与王田香不择手段软硬兼施,然而事情的发展却出乎意料……##### MediaInfo ######
General
Complete name                            : The.Message.2009.2160p.HQ.WEB-DL.H265.60fps.AAC-DreamHD.mp4
Duration                                 : 1 h 58 min
Overall bit rate mode                    : Variable
Overall bit rate                         : 25.2 Mb/s
Video
ID                                       : 1
Format                                   : HEVC
Format/Info                              : High Efficiency Video Coding
Format profile                           : Main [email protected]@Main
Codec ID                                 : hev1
Codec ID/Info                            : High Efficiency Video Coding
Duration                                 : 1 h 58 min
Bit rate                                 : 25.0 Mb/s
Width                                    : 3 840 pixels
Height                                   : 1 648 pixels
Display aspect ratio                     : 2.35:1
Frame rate mode                          : Variable
Frame rate                               : 60.000 FPS
Minimum frame rate                       : 59.960 FPS
Maximum frame rate                       : 60.040 FPS
Color space                              : YUV
Chroma subsampling                       : 4:2:0
Bit depth                                : 10 bits
Bits/(Pixel*Frame)                       : 0.066
Stream size                              : 20.7 GiB (99%)
Color range                              : Limited
Color primaries                          : BT.709
Transfer characteristics                 : BT.709
Matrix coefficients                      : BT.709
Codec configuration box                  : hvcC
Audio
ID                                       : 2
Format                                   : AAC LC
Format/Info                              : Advanced Audio Codec Low Complexity
Codec ID                                 : mp4a-40-2
Duration                                 : 1 h 58 min
Bit rate mode                            : Variable
Bit rate                                 : 192 kb/s
Maximum bit rate                         : 195 kb/s
Channel(s)                               : 2 channels
Channel layout                           : L R
Sampling rate                            : 44.1 kHz
Frame rate                               : 43.066 FPS (1024 SPF)
Compression mode                         : Lossy
Stream size                              : 163 MiB (1%)
Default                                  : Yes
Alternate group                          : 1
部分资源为软字幕,移动端推荐播放器:MxPlayer,nPlayer,infuse ,其他播放器请自行尝试。
部分资源为软字幕,电脑端推荐播放器:PotPlayer,完美解码,KMPLAYER,其他播放器请自行尝试。






~~~~~~~~~~~~~~~~~~~~~~~~~~~~~~~~~~~~~~~~~
[2009][大陆][剧情][WEB-4K]风声[60帧率版本][高码版][国语配音/中文字幕].The.Message.2009.2160p.HQ.WEB-DL.H265.60fps.AAC-Dream

【文件列表】:


The.Message.2009.2160p.HQ.WEB-DL.H265.60fps.AAC-DreamHD.



【下载地址列表】:


游客
文件下载链接就在这里,在您回复评论成功后才能显示。
请勿回复无意义的灌水内容。


下拉页面到最底部回复或者【点击此处快捷回复】,回复后返回此处即可查看下载链接。
如您没注册本站会员,可以点击注册本站,注册后即可回复下载。



软字幕无法在截图上展现,HDR版本/杜比视界版本截图会出现颜色异常,请使用支持的设备播放!






[img][/img]






[img][/img]

(HDR版本/杜比视界版本,截图会出现颜色异常,请使用支持的设备播放)

小贴士:【影视自媒体解说文案请移步:夏至文案解说网 www.xiazhi.vip

上一篇:[2017][大陆][悬疑][WEB-4K]记忆大师[杜比视界版本][国语配音/中文字幕].Battle.of.Memories.2017.2160p.WEB-DL.H265.DV.DDP5.1.Atmo
下一篇:[2009][大陆][剧情][WEB-4K]风声[高码版][国语配音/中文字幕].The.Message.2009.2160p.HQ.WEB-DL.H265.AAC- 16.63GB
回复

使用道具 举报

您需要登录后才可以回帖 登录 | 立即注册

本版积分规则

Archiver|手机版|小众纪录片影视聚合

GMT+8, 2024-7-13 02:29 , Processed in 0.127231 second(s), 13 queries , Gzip On, Redis On.

Powered by 小众纪录片影视聚合 @2010-2023

Copyright © 2010-2024, https://www.xzjlp.com/.


免责说明:本站所有内容链接、图文介绍等均来自于互联网网友分享,本站仅支持web页面展示和文字介绍,绝不提供在线观看和存储服务,也不参与录制、上传、压片。若本站收录内容无意侵犯贵司版权,请发邮件到【a885185#163.com】联系本站,我们将在第一时间删除侵权内容。谢谢!

快速回复 返回顶部 返回列表