小众纪录片影视聚合

 找回密码
 立即注册
查看: 2|回复: 0

[蓝光电影] [2023][大陆][动作][WEB-4K]黑金古殿[高码版][国语配音/中文字幕].Misty.Creed.2023.2160p.HQ.WEB-DL.H265.DDP5.1- 13.54G

[复制链接]

112万

主题

112万

帖子

112万

积分

超级版主

Rank: 8Rank: 8

积分
1128817
发表于 7 天前 | 显示全部楼层 |阅读模式


[2023][大陆][动作][WEB-4K]黑金古殿[高码版][国语配音/中文字幕].Misty.Creed.2023.2160p.HQ.WEB-DL.H265.DDP5.1- 13.54G

完整标题:黑金古殿[高码版][国语配音/中文字幕].Misty.Creed.2023.2160p.HQ.WEB-DL.H265.DDP5.1-DreamHD 13.54GB
◎标  题 黑金古殿
◎译  名 盗墓笔记之黑金古殿
◎年  代 2023
◎产  地 中国大陆
◎类  别 动作 / 悬疑 / 冒险
◎语  言 汉语普通话
◎上映日期 2023-10-28(中国大陆网络)
◎IMDb链接 https://www.imdb.com/title//
◎豆瓣链接 https://movie.douban.com/subject/36624322/
◎导  演 陈聚力 Juli Chen
◎演  员 景研竣 Yanjun Jing
       陈叶生 Yesheng Chen
◎简  介
    一位老者带着西南山区发生的诡事,前来寻求吴老板三人的帮助。山中雾起,村民失踪,众人追寻怪事至山区废弃的黑金矿洞,发现所有诡异都来源于矿洞深处的神秘生物,在经历重重危机之后,三人不仅瓦解了老者的阴谋,还顺利解决了大雾问题。##### MediaInfo ######
General
Unique ID                                : 262247658007425745372896804465953587714 (0xC54B0FCE348B5755A26B26164815C202)
Complete name                            : Misty.Creed.2023.2160p.HQ.WEB-DL.H265.DDP5.1-DreamHD.mkv
Duration                                 : 1 h 34 min
Overall bit rate                         : 20.6 Mb/s
Video
ID                                       : 1
Format                                   : HEVC
Format/Info                              : High Efficiency Video Coding
Format profile                           : Main [email protected]@Main
Codec ID                                 : V_MPEGH/ISO/HEVC
Duration                                 : 1 h 33 min
Bit rate                                 : 19.8 Mb/s
Width                                    : 3 840 pixels
Height                                   : 1 608 pixels
Display aspect ratio                     : 2.40:1
Frame rate mode                          : Constant
Frame rate                               : 25.000 FPS
Color space                              : YUV
Chroma subsampling                       : 4:2:0
Bit depth                                : 10 bits
Bits/(Pixel*Frame)                       : 0.129
Stream size                              : 13.0 GiB (96%)
Default                                  : Yes
Forced                                   : No
Color range                              : Limited
Color primaries                          : BT.709
Transfer characteristics                 : BT.709
Matrix coefficients                      : BT.709
Audio #1
ID                                       : 2
Format                                   : E-AC-3
Format/Info                              : Enhanced AC-3
Commercial name                          : Dolby Digital Plus
Codec ID                                 : A_EAC3
Duration                                 : 1 h 33 min
Bit rate mode                            : Constant
Bit rate                                 : 256 kb/s
Channel(s)                               : 6 channels
Channel layout                           : L R C LFE Ls Rs
Sampling rate                            : 48.0 kHz
Frame rate                               : 31.250 FPS (1536 SPF)
Compression mode                         : Lossy
Stream size                              : 172 MiB (1%)
Title                                    : Mandarin [DDP5.1]
Language                                 : Chinese
Service kind                             : Complete Main
Default                                  : Yes
Forced                                   : No
Audio #2
ID                                       : 3
Format                                   : E-AC-3
Format/Info                              : Enhanced AC-3
Commercial name                          : Dolby Digital Plus
Codec ID                                 : A_EAC3
Duration                                 : 1 h 34 min
Bit rate mode                            : Constant
Bit rate                                 : 256 kb/s
Channel(s)                               : 2 channels
Channel layout                           : L R
Sampling rate                            : 48.0 kHz
Frame rate                               : 31.250 FPS (1536 SPF)
Compression mode                         : Lossy
Stream size                              : 172 MiB (1%)
Title                                    : Mandarin [DDP2.0]
Language                                 : Chinese
Service kind                             : Complete Main
Default                                  : No
Forced                                   : No
Audio #3
ID                                       : 4
Format                                   : AAC LC
Format/Info                              : Advanced Audio Codec Low Complexity
Codec ID                                 : A_AAC-2
Duration                                 : 1 h 33 min
Bit rate                                 : 256 kb/s
Channel(s)                               : 2 channels
Channel layout                           : L R
Sampling rate                            : 44.1 kHz
Frame rate                               : 43.066 FPS (1024 SPF)
Compression mode                         : Lossy
Stream size                              : 172 MiB (1%)
Title                                    : Mandarin [AAC2.0]
Language                                 : Chinese
Default                                  : No
Forced                                   : No
部分资源为软字幕,移动端推荐播放器:MxPlayer,nPlayer,infuse ,其他播放器请自行尝试。
部分资源为软字幕,电脑端推荐播放器:PotPlayer,完美解码,KMPLAYER,其他播放器请自行尝试。






~~~~~~~~~~~~~~~~~~~~~~~~~~~~~~~~~~~~~~~~~
[2023][大陆][动作][WEB-4K]黑金古殿[高码版][国语配音/中文字幕].Misty.Creed.2023.2160p.HQ.WEB-DL.H265.DDP5.1- 13.54G

【文件列表】:


Misty.Creed.2023.2160p.HQ.WEB-DL.H265.DDP5.1-DreamHD.



【下载地址列表】:


游客
文件下载链接就在这里,在您回复评论成功后才能显示。
请勿回复无意义的灌水内容。


下拉页面到最底部回复或者【点击此处快捷回复】,回复后返回此处即可查看下载链接。
如您没注册本站会员,可以点击注册本站,注册后即可回复下载。



软字幕无法在截图上展现,HDR版本/杜比视界版本截图会出现颜色异常,请使用支持的设备播放!






[img][/img]






[img][/img]

(HDR版本/杜比视界版本,截图会出现颜色异常,请使用支持的设备播放)

小贴士:【影视自媒体解说文案请移步:夏至文案解说网 www.xiazhi.vip

上一篇:[2023][大陆][动作][WEB-4K]黑金古殿[60帧率版本][高码版][国语配音/中文字幕].Misty.Creed.2023.2160p.HQ.WEB-DL.H265.60fps.DDP5.1-
下一篇:[2015][其它][其它][WEB-1080P]爱登堡的极乐鸟世界[中文字幕].Attenborough's.Paradise.Birds.2015.1080p.WEB-DL.H264.AAC-
回复

使用道具 举报

您需要登录后才可以回帖 登录 | 立即注册

本版积分规则

Archiver|手机版|小众纪录片影视聚合

GMT+8, 2024-7-16 22:38 , Processed in 0.118896 second(s), 13 queries , Gzip On, Redis On.

Powered by 小众纪录片影视聚合 @2010-2023

Copyright © 2010-2024, https://www.xzjlp.com/.


免责说明:本站所有内容链接、图文介绍等均来自于互联网网友分享,本站仅支持web页面展示和文字介绍,绝不提供在线观看和存储服务,也不参与录制、上传、压片。若本站收录内容无意侵犯贵司版权,请发邮件到【a885185#163.com】联系本站,我们将在第一时间删除侵权内容。谢谢!

快速回复 返回顶部 返回列表