小众纪录片影视聚合

 找回密码
 立即注册
查看: 6|回复: 0

[蓝光电影] [2018][其它][其它][WEB-1080P]地平线系列:安慰剂试验[中文字幕].Horizon.The.Placebo.Experiment.2018.1080p.WEB-DL.H264.AAC-SONY

[复制链接]

113万

主题

113万

帖子

113万

积分

超级版主

Rank: 8Rank: 8

积分
1134020
发表于 2024-7-9 21:10:01 | 显示全部楼层 |阅读模式


[2018][其它][其它][WEB-1080P]地平线系列:安慰剂试验[中文字幕].Horizon.The.Placebo.Experiment.2018.1080p.WEB-DL.H264.AAC-SONY

完整标题:地平线系列:安慰剂试验[中文字幕].Horizon.The.Placebo.Experiment.2018.1080p.WEB-DL.H264.AAC-SONYHD 1.95GB
◎标  题 地平线系列:安慰剂试验
◎译  名 Can My Brain Cure My Body?
◎片  名 Horizon: The Placebo Experiment
◎年  代 2018
◎产  地 英国
◎类  别 纪录片
◎语  言 英语
◎上映日期 2018-10-04(英国)
◎IMDb评分 7.2/10 (19人评价)
◎IMDb链接 https://www.imdb.com/title/tt9080188/
◎豆瓣评分 7.7/10 (163人评价)
◎豆瓣链接 https://movie.douban.com/subject/30351919/
◎片  长 50分钟
◎演  员 迈克尔·莫斯利 Michael J. Mosley
◎简  介
    安慰剂可以被用来治疗常见的医学疾病吗?为了找到答案,《地平线》开始了一项具有里程碑意义的研究。100多名志愿者因背痛接受治疗,除了假药和精神力量,其它什么都不用。他们的大脑能产生比处方止疼药更好的疗效。但这个方法有用吗?当他们知道真相,他们会有怎样的反应?这部纪录片还将介绍世界上的其它实验,包括一名妇女通过接受假手术治疗慢性肩痛,另外,即使你知道自己吃的是安慰剂,它也会产生效果。##### MediaInfo ######
General
Complete name                            : Horizon.The.Placebo.Experiment.2018.1080p.WEB-DL.H264.AAC-SONYHD.mp4
Duration                                 : 51 min 8 s
Overall bit rate                         : 5 451 kb/s
Video
ID                                       : 1
Format                                   : AVC
Format/Info                              : Advanced Video Codec
Format profile                           : High@L5
Format settings                          : CABAC / 6 Ref Frames
Format settings, CABAC                   : Yes
Format settings, Reference frames        : 6 frames
Codec ID                                 : avc1
Codec ID/Info                            : Advanced Video Coding
Duration                                 : 51 min 8 s
Bit rate                                 : 5 127 kb/s
Width                                    : 1 920 pixels
Height                                   : 1 080 pixels
Display aspect ratio                     : 16:9
Frame rate mode                          : Constant
Frame rate                               : 25.000 FPS
Color space                              : YUV
Chroma subsampling                       : 4:2:0
Bit depth                                : 8 bits
Scan type                                : Progressive
Bits/(Pixel*Frame)                       : 0.099
Stream size                              : 1.83 GiB (94%)
Color range                              : Limited
Color primaries                          : BT.709
Transfer characteristics                 : BT.709
Matrix coefficients                      : BT.709
Codec configuration box                  : avcC
Audio
ID                                       : 2
Format                                   : AAC LC
Format/Info                              : Advanced Audio Codec Low Complexity
Codec ID                                 : mp4a-40-2
Duration                                 : 51 min 8 s
Bit rate mode                            : Constant
Bit rate                                 : 317 kb/s
Channel(s)                               : 2 channels
Channel layout                           : L R
Sampling rate                            : 48.0 kHz
Frame rate                               : 46.875 FPS (1024 SPF)
Compression mode                         : Lossy
Stream size                              : 116 MiB (6%)
Default                                  : Yes
Alternate group                          : 1
部分资源为软字幕,移动端推荐播放器:MxPlayer,nPlayer,infuse ,其他播放器请自行尝试。
部分资源为软字幕,电脑端推荐播放器:PotPlayer,完美解码,KMPLAYER,其他播放器请自行尝试。






~~~~~~~~~~~~~~~~~~~~~~~~~~~~~~~~~~~~~~~~~
[2018][其它][其它][WEB-1080P]地平线系列:安慰剂试验[中文字幕].Horizon.The.Placebo.Experiment.2018.1080p.WEB-DL.H264.AAC-SONY

【文件列表】:


Horizon.The.Placebo.Experiment.2018.1080p.WEB-DL.H264.AAC-SONYHD.

Horizon.The.Placebo.Experiment.2018.1080p.WEB-DL.H264.AAC-SONYHD.



【下载地址列表】:


游客
文件下载链接就在这里,在您回复评论成功后才能显示。
请勿回复无意义的灌水内容。


下拉页面到最底部回复或者【点击此处快捷回复】,回复后返回此处即可查看下载链接。
如您没注册本站会员,可以点击注册本站,注册后即可回复下载。



软字幕无法在截图上展现,HDR版本/杜比视界版本截图会出现颜色异常,请使用支持的设备播放!






[img][/img]






[img][/img]

(HDR版本/杜比视界版本,截图会出现颜色异常,请使用支持的设备播放)

小贴士:【影视自媒体解说文案请移步:夏至文案解说网 www.xiazhi.vip

上一篇:[2022][其它][其它][WEB-1080P]屏住呼吸:挑战冰潜纪录[简繁英字幕].Hold.Your.Breath.The.Ice.Dive.2022.1080p.NF.WEB-DL.H264.DDP5.
下一篇:[2016][日本][其它][WEB-1080P]时间协奏曲 制表大师菊野正弘[中文字幕].2017.1080p.WEB-DL.H264.AAC- 0.93GB
回复

使用道具 举报

您需要登录后才可以回帖 登录 | 立即注册

本版积分规则

Archiver|手机版|小众纪录片影视聚合

GMT+8, 2024-7-20 17:18 , Processed in 0.407521 second(s), 13 queries , Gzip On, Redis On.

Powered by 小众纪录片影视聚合 @2010-2023

Copyright © 2010-2024, https://www.xzjlp.com/.


免责说明:本站所有内容链接、图文介绍等均来自于互联网网友分享,本站仅支持web页面展示和文字介绍,绝不提供在线观看和存储服务,也不参与录制、上传、压片。若本站收录内容无意侵犯贵司版权,请发邮件到【a885185#163.com】联系本站,我们将在第一时间删除侵权内容。谢谢!

快速回复 返回顶部 返回列表