小众纪录片影视聚合

 找回密码
 立即注册
查看: 10|回复: 0

[蓝光电影] [2021][大陆][剧情][WEB-4K]狗果定理[国语配音/中文字幕].Happiness.Is.Like.Juice.2021.2160p.WEB-NukeHD 1.42GB

[复制链接]

113万

主题

113万

帖子

113万

积分

超级版主

Rank: 8Rank: 8

积分
1134816
发表于 2024-7-9 21:10:17 | 显示全部楼层 |阅读模式


[2021][大陆][剧情][WEB-4K]狗果定理[国语配音/中文字幕].Happiness.Is.Like.Juice.2021.2160p.WEB-NukeHD 1.42GB

完整标题:狗果定理[国语配音/中文字幕].Happiness.Is.Like.Juice.2021.2160p.WEB-NukeHD 1.42GB
◎标  题 狗果定理
◎译  名 Happiness Is Like Juice
◎年  代 2021
◎产  地 中国大陆
◎类  别 剧情 / 喜剧
◎语  言 汉语普通话
◎上映日期 2021-09-19(中国大陆)
◎IMDb链接 https://www.imdb.com/title//
◎豆瓣评分 2.9/10 (2588人评价)
◎豆瓣链接 https://movie.douban.com/subject/35086539/
◎片  长 100分钟
◎编  剧 辛华 Hua Xin
       张婵婵 Carrie
◎演  员 于谦 Qian Yu
       贾冰 Bing Jia
       印小天 Xiaotian Yin
       蒋梦婕 Mengjie Jiang
       梁丹妮 Danni Liang
       张绍荣 Shaorong Zhang
       王晴 Qing Wang
       栾云平 Yunping Luan
       果汁
◎简  介
    一个热爱动物的老奶奶,在无力照顾果汁时费尽心思替果汁寻找新的幸福生活,却又在机缘巧合下让果汁感受了不同家庭的喜怒哀乐。
点击图片可查看大图
软字幕无法在截图上展现,HDR版本/杜比视界版本截图会出现颜色异常,请使用支持的设备播放!
##### MediaInfo ######
General
Unique ID                                : 141847836375239357874044418499398526139 (0x6AB6E649B4B0220112C5D29CE5A2E4BB)
Complete name                            : [狗果定理].Happiness.Is.Like.Juice.2021.2160p.WEB-NukeHD.mp4
Duration                                 : 1 h 41 min
Overall bit rate                         : 2 008 kb/s
Video
ID                                       : 1
Format                                   : HEVC
Format/Info                              : High Efficiency Video Coding
Format profile                           : Main@L5@Main
Codec ID                                 : V_MPEGH/ISO/HEVC
Duration                                 : 1 h 41 min
Bit rate                                 : 1 750 kb/s
Width                                    : 3 840 pixels
Height                                   : 2 040 pixels
Display aspect ratio                     : 1.882
Frame rate mode                          : Constant
Frame rate                               : 24.000 FPS
Color space                              : YUV
Chroma subsampling                       : 4:2:0
Bit depth                                : 8 bits
Bits/(Pixel*Frame)                       : 0.009
Stream size                              : 1.24 GiB (87%)
Default                                  : Yes
Forced                                   : No
Audio
ID                                       : 2
Format                                   : E-AC-3
Format/Info                              : Enhanced AC-3
Commercial name                          : Dolby Digital Plus
Codec ID                                 : A_EAC3
Duration                                 : 1 h 41 min
Bit rate mode                            : Constant
Bit rate                                 : 256 kb/s
Channel(s)                               : 6 channels
Channel layout                           : L R C LFE Ls Rs
Sampling rate                            : 48.0 kHz
Frame rate                               : 31.250 FPS (1536 SPF)
Compression mode                         : Lossy
Stream size                              : 185 MiB (13%)
Title                                    : 国语杜比音效
Language                                 : Chinese
Service kind                             : Complete Main
Default                                  : Yes
Forced                                   : No
部分资源为软字幕,移动端推荐播放器:MxPlayer,nPlayer,infuse ,其他播放器请自行尝试。
部分资源为软字幕,电脑端推荐播放器:PotPlayer,完美解码,KMPLAYER,其他播放器请自行尝试。






~~~~~~~~~~~~~~~~~~~~~~~~~~~~~~~~~~~~~~~~~
[2021][大陆][剧情][WEB-4K]狗果定理[国语配音/中文字幕].Happiness.Is.Like.Juice.2021.2160p.WEB-NukeHD 1.42GB

【文件列表】:


Happiness.Is.Like.Juice.2021.2160p.WEB-NukeHD.



【下载地址列表】:


游客
文件下载链接就在这里,在您回复评论成功后才能显示。
请勿回复无意义的灌水内容。


下拉页面到最底部回复或者【点击此处快捷回复】,回复后返回此处即可查看下载链接。
如您没注册本站会员,可以点击注册本站,注册后即可回复下载。



软字幕无法在截图上展现,HDR版本/杜比视界版本截图会出现颜色异常,请使用支持的设备播放!






[img][/img]






[img][/img]

(HDR版本/杜比视界版本,截图会出现颜色异常,请使用支持的设备播放)

小贴士:【影视自媒体解说文案请移步:夏至文案解说网 www.xiazhi.vip

上一篇:[2015][其它][其它][WEB-1080P]汤罐头和超级明星:波普艺术如何改变世界[中文字幕].2015.1080p.WEB-DL.H264.AAC- 1.71GB
下一篇:[更 早][日本][动作][BD-1080P]名侦探柯南:通向天国的倒计时[国日多音轨/中文字幕].2001.Repack.1080p.BluRay.x265.10bit.DTS.2Audio-
回复

使用道具 举报

您需要登录后才可以回帖 登录 | 立即注册

本版积分规则

Archiver|手机版|小众纪录片影视聚合

GMT+8, 2024-7-22 07:39 , Processed in 0.231673 second(s), 13 queries , Gzip On, Redis On.

Powered by 小众纪录片影视聚合 @2010-2023

Copyright © 2010-2024, https://www.xzjlp.com/.


免责说明:本站所有内容链接、图文介绍等均来自于互联网网友分享,本站仅支持web页面展示和文字介绍,绝不提供在线观看和存储服务,也不参与录制、上传、压片。若本站收录内容无意侵犯贵司版权,请发邮件到【a885185#163.com】联系本站,我们将在第一时间删除侵权内容。谢谢!

快速回复 返回顶部 返回列表