小众纪录片影视聚合

 找回密码
 立即注册
查看: 8|回复: 0

[蓝光电影] [2023][其它][剧情][BD-1080P]果尔达[简繁英字幕].Golda.2023.1080p.BluRay.x264.DTS- 9.79GB

[复制链接]

112万

主题

112万

帖子

112万

积分

超级版主

Rank: 8Rank: 8

积分
1128817
发表于 2024-7-9 21:10:23 | 显示全部楼层 |阅读模式


[2023][其它][剧情][BD-1080P]果尔达[简繁英字幕].Golda.2023.1080p.BluRay.x264.DTS- 9.79GB

完整标题:果尔达[简繁英字幕].Golda.2023.1080p.BluRay.x264.DTS-SONYHD 9.79GB
◎标  题 果尔达
◎译  名 以色列铁娘子
◎片  名 Golda
◎年  代 2023
◎产  地 英国
◎类  别 剧情 / 传记 / 历史 / 战争
◎语  言 英语 / 希伯来语
◎上映日期 2023-02-20(柏林电影节) / 2023-08-25(美国)
◎IMDb评分 5.9/10 (8206人评价)
◎IMDb链接 https://www.imdb.com/title/tt14454876/
◎豆瓣评分 7.3/10 (2628人评价)
◎豆瓣链接 https://movie.douban.com/subject/35525524/
◎片  长 100分钟
◎导  演 盖·纳蒂弗 Guy Nattiv
◎编  剧 尼古拉斯·马丁 Nicholas Martin
◎演  员 海伦·米伦 Helen Mirren
       泽德·约瑟夫 Zed Josef
       克劳德特·威廉斯 Claudette Williams
       亨利·古德曼 Henry Goodman
       艾玛·戴维斯 Emma Davies
       奥利维亚·布罗迪 Olivia Brody
       罗坦·凯南 Rotem Keinan
       卡米尔·科坦 Camille Cottin
       乔纳森·塔夫勒 Jonathan Tafler
       埃利·皮尔西 Ellie Piercy
       拉米·希尔伯格 Rami Heuberger
       德维尔·班内德克 Dvir Benedek
       利奥尔·阿什肯纳齐 Lior Ashkenazi
       埃德·斯托帕德 Ed Stoppard
       多米尼克·马夫海姆 Dominic Mafham
       马克·弗莱施曼 Mark Fleischmann
       丹尼尔·本·泽努 Daniel Ben Zenou
       杰米·雷·纽曼 Jaime Ray Newman
       列维·施瑞博尔 Liev Schreiber
       欧哈德·诺勒 Ohad Knoller
       萨拉·马丁 Sara Matin
       皮埃尔·伯格曼 Pierre Bergman
       吉米·卡特 Jimmy Carter
       斯蒂芬·菲切特 Stephane Fichet
       亨利·基辛格 Henry Kissinger
       马里安·洛伦西克 Marian Lorencik
       果尔达·梅厄 Golda Meir
       理查德·尼克松 Richard Nixon
       基特·拉库森 Kit Rakusen
       穆罕默德·安瓦尔·萨达特 Anwar Sadat
       彼得·华生 Peter Watson
       本·卡普兰 Ben Caplan
◎简  介
    海伦·米伦饰演以色列历史上迄今为止唯一一位女总理果尔达·梅厄,故事围绕其在赎罪日战争期间面临的严峻而高风险的决定展开。##### MediaInfo ######
General
Unique ID                                : 180951523872344683404912413845404634764 (0x8821FEEEC4D9E2B708CBC3B95E2DCE8C)
Complete name                            : Golda.2023.1080p.BluRay.x264.DTS-SONYHD.mkv
Duration                                 : 1 h 40 min
Overall bit rate                         : 14.0 Mb/s
Video
ID                                       : 1
Format                                   : AVC
Format/Info                              : Advanced Video Codec
Format profile                           : [email protected]
Format settings                          : CABAC / 4 Ref Frames
Format settings, CABAC                   : Yes
Format settings, Reference frames        : 4 frames
Codec ID                                 : V_MPEG4/ISO/AVC
Duration                                 : 1 h 40 min
Bit rate                                 : 12.3 Mb/s
Width                                    : 1 920 pixels
Height                                   : 1 028 pixels
Display aspect ratio                     : 1.85:1
Frame rate mode                          : Constant
Frame rate                               : 23.976 (24000/1001) FPS
Color space                              : YUV
Chroma subsampling                       : 4:2:0
Bit depth                                : 8 bits
Scan type                                : Progressive
Bits/(Pixel*Frame)                       : 0.261
Stream size                              : 8.66 GiB (88%)
Title                                    : Golda.2023.1080p.BluRay.AVC.DTS-HD.MA.5.1-DIY@Audies
Writing library                          : x264 core 161 r3018+53 18a1d6c t_mod_New [(8 & 10)-bit@all X86_64]
Encoding settings                        : cabac=1 / ref=3 / deblock=1:-3:-3 / analyse=0x3:0x133 / me=umh / subme=11 / psy=1 / fade_compensate=0.00 / psy_rd=1.00:0.00 / mixed_ref=1 / me_range=48 / chroma_me=1 / trellis=2 / 8x8dct=1 / cqm=0 / deadzone=21,11 / fast_pskip=0 / chroma_qp_offset=-3 / threads=24 / lookahead_threads=6 / sliced_threads=0 / nr=0 / decimate=0 / interlaced=0 / bluray_compat=0 / constrained_intra=0 / fgo=0 / bframes=11 / b_pyramid=2 / b_adapt=2 / b_bias=0 / direct=3 / weightb=1 / open_gop=0 / weightp=2 / keyint=240 / keyint_min=1 / scenecut=40 / intra_refresh=0 / rc_lookahead=72 / rc=crf / mbtree=0 / crf=20.2000 / qcomp=0.70 / qpmin=0:0:0 / qpmax=69:69:69 / qpstep=4 / vbv_maxrate=62500 / vbv_bufsize=78125 / crf_max=0.0 / nal_hrd=none / filler=0 / ip_ratio=1.40 / pb_ratio=1.30 / aq=3:0.90 / aq-sensitivity=10.00 / aq-factor=1.00:1.00:1.00 / aq2=0 / aq3=0
Language                                 : English
Default                                  : Yes
Forced                                   : No
Audio
ID                                       : 2
ID in the original source medium         : 4352 (0x1100)
Format                                   : DTS
Format/Info                              : Digital Theater Systems
Codec ID                                 : A_DTS
Duration                                 : 1 h 40 min
Bit rate mode                            : Constant
Bit rate                                 : 1 509 kb/s
Channel(s)                               : 6 channels
Channel layout                           : C L R Ls Rs LFE
Sampling rate                            : 48.0 kHz
Frame rate                               : 93.750 FPS (512 SPF)
Bit depth                                : 24 bits
Compression mode                         : Lossy
Stream size                              : 1.06 GiB (11%)
Title                                    : DTS.5.1
Language                                 : English
Default                                  : Yes
Forced                                   : No
Original source medium                   : Blu-ray
Text #1
ID                                       : 3
ID in the original source medium         : 4611 (0x1203)
Format                                   : PGS
Muxing mode                              : zlib
Codec ID                                 : S_HDMV/PGS
Codec ID/Info                            : Picture based subtitle format used on BDs/HD-DVDs
Duration                                 : 1 h 33 min
Bit rate                                 : 57.6 kb/s
Frame rate                               : 0.460 FPS
Count of elements                        : 2586
Stream size                              : 38.6 MiB (0%)
Title                                    : chs&eng
Language                                 : Chinese
Default                                  : Yes
Forced                                   : No
Original source medium                   : Blu-ray
Text #2
ID                                       : 4
ID in the original source medium         : 4612 (0x1204)
Format                                   : PGS
Muxing mode                              : zlib
Codec ID                                 : S_HDMV/PGS
Codec ID/Info                            : Picture based subtitle format used on BDs/HD-DVDs
Duration                                 : 1 h 33 min
Bit rate                                 : 57.8 kb/s
Frame rate                               : 0.460 FPS
Count of elements                        : 2586
Stream size                              : 38.7 MiB (0%)
Title                                    : cht&eng
Language                                 : Chinese
Default                                  : No
Forced                                   : No
Original source medium                   : Blu-ray
Text #3
ID                                       : 5
ID in the original source medium         : 4613 (0x1205)
Format                                   : PGS
Muxing mode                              : zlib
Codec ID                                 : S_HDMV/PGS
Codec ID/Info                            : Picture based subtitle format used on BDs/HD-DVDs
Duration                                 : 1 h 33 min
Bit rate                                 : 38.4 kb/s
Frame rate                               : 0.460 FPS
Count of elements                        : 2586
Stream size                              : 25.7 MiB (0%)
Title                                    : chs
Language                                 : Chinese
Default                                  : No
Forced                                   : No
Original source medium                   : Blu-ray
Text #4
ID                                       : 6
ID in the original source medium         : 4614 (0x1206)
Format                                   : PGS
Muxing mode                              : zlib
Codec ID                                 : S_HDMV/PGS
Codec ID/Info                            : Picture based subtitle format used on BDs/HD-DVDs
Duration                                 : 1 h 33 min
Bit rate                                 : 38.6 kb/s
Frame rate                               : 0.460 FPS
Count of elements                        : 2586
Stream size                              : 25.9 MiB (0%)
Title                                    : cht
Language                                 : Chinese
Default                                  : No
Forced                                   : No
Original source medium                   : Blu-ray
Text #5
ID                                       : 7
ID in the original source medium         : 4609 (0x1201)
Format                                   : PGS
Muxing mode                              : zlib
Codec ID                                 : S_HDMV/PGS
Codec ID/Info                            : Picture based subtitle format used on BDs/HD-DVDs
Duration                                 : 1 h 32 min
Bit rate                                 : 28.4 kb/s
Frame rate                               : 0.486 FPS
Count of elements                        : 2692
Stream size                              : 18.8 MiB (0%)
Title                                    : eng
Language                                 : English
Default                                  : No
Forced                                   : No
Original source medium                   : Blu-ray
Menu
00:00:00.000                             : en:Chapter 01
00:16:47.798                             : en:Chapter 02
00:27:14.716                             : en:Chapter 03
00:39:19.315                             : en:Chapter 04
00:55:06.720                             : en:Chapter 05
01:04:17.687                             : en:Chapter 06
01:19:57.959                             : en:Chapter 07
01:33:43.034                             : en:Chapter 08
部分资源为软字幕,移动端推荐播放器:MxPlayer,nPlayer,infuse ,其他播放器请自行尝试。
部分资源为软字幕,电脑端推荐播放器:PotPlayer,完美解码,KMPLAYER,其他播放器请自行尝试。






~~~~~~~~~~~~~~~~~~~~~~~~~~~~~~~~~~~~~~~~~
[2023][其它][剧情][BD-1080P]果尔达[简繁英字幕].Golda.2023.1080p.BluRay.x264.DTS- 9.79GB

【文件列表】:


Golda.2023.1080p.BluRay.x264.DTS-SONYHD.



【下载地址列表】:


游客
文件下载链接就在这里,在您回复评论成功后才能显示。
请勿回复无意义的灌水内容。


下拉页面到最底部回复或者【点击此处快捷回复】,回复后返回此处即可查看下载链接。
如您没注册本站会员,可以点击注册本站,注册后即可回复下载。



软字幕无法在截图上展现,HDR版本/杜比视界版本截图会出现颜色异常,请使用支持的设备播放!






[img][/img]






[img][/img]

(HDR版本/杜比视界版本,截图会出现颜色异常,请使用支持的设备播放)

小贴士:【影视自媒体解说文案请移步:夏至文案解说网 www.xiazhi.vip

上一篇:[更 早][日本][动作][BD-1080P]名侦探柯南:通向天国的倒计时[国日多音轨/中文字幕].2001.Repack.1080p.BluRay.x265.10bit.DTS.2Audio-
下一篇:[2023][其它][剧情][BD-1080P]果尔达[简繁英字幕].Golda.2023.1080p.BluRay.x265.10bit.DTS- 5.68GB
回复

使用道具 举报

您需要登录后才可以回帖 登录 | 立即注册

本版积分规则

Archiver|手机版|小众纪录片影视聚合

GMT+8, 2024-7-17 00:33 , Processed in 0.138945 second(s), 12 queries , Gzip On, Redis On.

Powered by 小众纪录片影视聚合 @2010-2023

Copyright © 2010-2024, https://www.xzjlp.com/.


免责说明:本站所有内容链接、图文介绍等均来自于互联网网友分享,本站仅支持web页面展示和文字介绍,绝不提供在线观看和存储服务,也不参与录制、上传、压片。若本站收录内容无意侵犯贵司版权,请发邮件到【a885185#163.com】联系本站,我们将在第一时间删除侵权内容。谢谢!

快速回复 返回顶部 返回列表