小众纪录片影视聚合

 找回密码
 立即注册
查看: 5|回复: 0

[蓝光电影] [更 早][其它][其它][BD-1080P]雅克·德米的世界[简繁英字幕].The.World.of.Jacques.Demy.1995.CC.1080p.BluRay.x265.10bit.FLAC.1

[复制链接]

113万

主题

113万

帖子

113万

积分

超级版主

Rank: 8Rank: 8

积分
1134606
发表于 2024-7-9 21:10:50 | 显示全部楼层 |阅读模式


[更 早][其它][其它][BD-1080P]雅克·德米的世界[简繁英字幕].The.World.of.Jacques.Demy.1995.CC.1080p.BluRay.x265.10bit.FLAC.1

完整标题:雅克·德米的世界[简繁英字幕].The.World.of.Jacques.Demy.1995.CC.1080p.BluRay.x265.10bit.FLAC.1.0-SONYHD 4.79GB
◎标  题 雅克·德米的世界
◎译  名 德米吾爱 / 丹美的世界 / The World of Jacques Demy
◎片  名 L'Univers de Jacques Demy
◎年  代 1995
◎产  地 法国 / 比利时 / 西班牙
◎类  别 纪录片
◎语  言 法语 / 英语
◎上映日期 1995-09-22
◎IMDb评分 7.4/10 (562人评价)
◎IMDb链接 https://www.imdb.com/title/tt0114794/
◎豆瓣评分 8.1/10 (518人评价)
◎豆瓣链接 https://movie.douban.com/subject/1401902/
◎片  长 90 分钟
◎导  演 阿涅斯·瓦尔达 Agnès Varda
◎编  剧 阿涅斯·瓦尔达 Agnès Varda
◎演  员 阿努克·艾梅 Anouk Aimée
       理查德·贝里 Richard Berry
       尼诺·卡斯泰尔诺沃 Nino Castelnuovo
       达尼埃尔·达里约 Danielle Darrieux
       凯瑟琳·德纳芙 Catherine Deneuve
       弗兰西丝·法比安 Françoise Fabian
       哈里森·福特 Harrison Ford
       克洛德·曼 Claude Mann
       马克·米歇尔 Marc Michel
       让娜·莫罗 Jeanne Moreau
       雅克·贝汉 Jacques Perrin
       米歇尔·皮科利 Michel Piccoli
       多米妮克·桑达 Dominique Sanda
       安妮·维尔侬 Anne Vernon
       米歇尔·勒格朗 Michel Legrand
       杰拉尔德·艾尔斯 Gerald Ayres
       克劳德·贝里 Claude Berri
       玛格·博达尔 Mag Bodard
       马修·德米 Mathieu Demy
       贝特朗·塔维涅 Bertrand Tavernier
        Claude-Marie Trémois
       Bernard Toublanc-Michel Bernard Toublanc-Michel
       多米尼克·帕尼 Dominique Païni
       Emmanuel Machuel Emmanuel Machuel
       帕特丽夏·路易斯安那·诺普 Patricia Louisianna Knop
       贝尔纳·埃万 Bernard Evein
       Annie Duperoux Annie Duperoux
       罗萨丽·瓦尔达 Rosalie Varda
       弗朗索瓦·朵列 Françoise Dorléac
       雅克·德米 Jacques Demy
       阿涅斯·瓦尔达 Agnès Varda
       弗朗索瓦·特吕弗 François Truffaut
       米切林内·普雷斯利 Micheline Presle
       吉姆·莫里森 Jim Morrison
       伊夫·蒙当 Yves Montand
       玛蒂尔达·梅 Mathilda May
       让·马莱 Jean Marais
       费尔南·勒杜 Fernand Ledoux
       Christian Chaudet Christian Chaudet
       德菲因·塞里格 Delphine Seyrig
       迈克尔·科伦贝尔 Michel Colombier
◎简  介
    《雅克·德米的世界》是阿涅斯·瓦尔达对丈夫雅克·德米的爱恋与追思,也是一堂精彩的法国电影史。阿涅斯·瓦尔达一共拍摄了三部以雅克·德米为主题的电影。1990年雅克·德米即将因病逝世时,瓦尔达在他生命的模锻重新拍摄并分享了他的童年——她来不及参与的回忆。德米逝世之后,瓦尔达则以纪录片的形式完整地讲述德米的电影世界。影片包括资料式的访谈影像、片场的纪实资料、曾经合作的电影工作者、演员以及影迷的追忆片段等,还有一些珍贵的史料片段,比如大门乐队的主唱吉姆·莫里森探班《驴皮公主》拍片现场的经典画面。##### MediaInfo ######
General
Unique ID                                : 65361084316710404719843859365725596141 (0x312C16423EB29A56FA42D7B7A2D1E9ED)
Complete name                            : The.World.of.Jacques.Demy.1995.CC.1080p.BluRay.x265.10bit.FLAC.1.0-SONYHD.mkv
Duration                                 : 1 h 32 min
Overall bit rate mode                    : Variable
Overall bit rate                         : 7 451 kb/s
Video
ID                                       : 1
Format                                   : HEVC
Format/Info                              : High Efficiency Video Coding
Format profile                           : Main 10@L5@Main
Codec ID                                 : V_MPEGH/ISO/HEVC
Duration                                 : 1 h 32 min
Bit rate                                 : 7 047 kb/s
Width                                    : 1 798 pixels
Height                                   : 1 080 pixels
Display aspect ratio                     : 5:3
Frame rate mode                          : Constant
Frame rate                               : 23.976 (24000/1001) FPS
Color space                              : YUV
Chroma subsampling                       : 4:2:0
Bit depth                                : 10 bits
Bits/(Pixel*Frame)                       : 0.151
Stream size                              : 4.53 GiB (95%)
Writing library                          : x265 3.5g2b25c9ba0+45:[Windows][GCC 10.2.0][64 bit] Yuuki 10bit+8bit+12bit
Encoding settings                        : rc=crf / crf=22.5000 / qcomp=0.60 / qpstep=4 / stats-write=0 / stats-read=0 / no-lossless / no-cu-lossless / aq-mode=3 / aq-strength=0.90 / cbqpoffs=0 / crqpoffs=0 / ipratio=1.40 / pbratio=1.30 / psy-rd=2.00 / psy-rdoq=0.00 / deblock=0:0 / ref=6 / limit-refs=1 / no-limit-modes / bframes=8 / b-adapt=2 / bframe-bias=0 / b-pyramid / b-intra / weightp / weightb / min-keyint=24 / max-keyint=240 / rc-lookahead=24 / gop-lookahead=0 / scenecut=40 / hist-scenecut=0 / radl=0 / max-cu-size=64 / min-cu-size=8 / me=3 / subme=7 / merange=48 / rdoq-level=0 / rd=4 / rdpenalty=0 / dynamic-rd=0.00 / no-rd-refine / ----- / cutree / sao / no-rect / no-amp / no-open-gop / wpp / no-pmode / no-pme / no-psnr / no-ssim / nr-intra=0 / nr-inter=0 / no-constrained-intra / no-strong-intra-smoothing / max-tu-size=32 / tu-inter-depth=1 / tu-intra-depth=1 / limit-tu=0 / qg-size=32 / qpmax=69 / qpmin=0 / ----- / cpuid=1111039 / frame-threads=4 / numa-pools=+ / log-level=2 / input-csp=1 / input-res=1798x1080 / interlace=0 / level-idc=0 / high-tier=1 / uhd-bd=0 / no-allow-non-conformance / no-repeat-headers / aud / no-hrd / info / hash=0 / no-temporal-layers / lookahead-slices=0 / no-splice / no-intra-refresh / no-ssim-rd / signhide / no-tskip / max-merge=3 / temporal-mvp / no-frame-dup / no-hme / no-analyze-src-pics / no-sao-non-deblock / selective-sao=4 / early-skip / rskip / no-fast-intra / no-tskip-fast / no-splitrd-skip / zone-count=0 / no-strict-cbr / no-rc-grain / no-const-vbv / sar=0 / overscan=0 / videoformat=5 / range=0 / colorprim=2 / transfer=2 / colormatrix=2 / chromaloc=0 / display-window=0 / cll=0,0 / min-luma=0 / max-luma=1023 / log2-max-poc-lsb=8 / vui-timing-info / vui-hrd-info / slices=1 / no-opt-qp-pps / no-opt-ref-list-length-pps / no-multi-pass-opt-rps / scenecut-bias=0.05 / hist-threshold=0.03 / no-opt-cu-delta-qp / no-aq-motion / no-hdr10 / no-hdr10-opt / no-dhdr10-opt / no-idr-recovery-sei / analysis-reuse-level=0 / analysis-save-reuse-level=0 / analysis-load-reuse-level=0 / scale-factor=0 / refine-intra=0 / refine-inter=0 / refine-mv=1 / refine-ctu-distortion=0 / no-limit-sao / ctu-info=0 / no-lowpass-dct / refine-analysis-type=0 / copy-pic=1 / max-ausize-factor=1.0 / no-dynamic-refine / no-single-sei / no-hevc-aq / no-svt / no-field / qp-adaptation-range=1.00 / scenecut-aware-qp=0conformance-window-offsets / right=0 / bottom=0 / decoder-max-rate=0 / no-vbv-live-multi-pass
Default                                  : Yes
Forced                                   : No
Audio
ID                                       : 2
Format                                   : FLAC
Format/Info                              : Free Lossless Audio Codec
Codec ID                                 : A_FLAC
Duration                                 : 1 h 32 min
Bit rate mode                            : Variable
Bit rate                                 : 291 kb/s
Channel(s)                               : 1 channel
Channel layout                           : C
Sampling rate                            : 48.0 kHz
Frame rate                               : 11.719 FPS (4096 SPF)
Bit depth                                : 16 bits
Compression mode                         : Lossless
Stream size                              : 192 MiB (4%)
Title                                    : French
Writing library                          : libFLAC 1.2.1 (UTC 2007-09-17)
Language                                 : French
Default                                  : Yes
Forced                                   : No
Text #1
ID                                       : 3
ID in the original source medium         : 4609 (0x1201)
Format                                   : PGS
Muxing mode                              : zlib
Codec ID                                 : S_HDMV/PGS
Codec ID/Info                            : Picture based subtitle format used on BDs/HD-DVDs
Duration                                 : 1 h 30 min
Bit rate                                 : 65.8 kb/s
Frame rate                               : 0.496 FPS
Count of elements                        : 2686
Stream size                              : 42.5 MiB (1%)
Title                                    : chs&eng
Language                                 : Chinese
Default                                  : Yes
Forced                                   : No
Original source medium                   : Blu-ray
Text #2
ID                                       : 4
ID in the original source medium         : 4610 (0x1202)
Format                                   : PGS
Muxing mode                              : zlib
Codec ID                                 : S_HDMV/PGS
Codec ID/Info                            : Picture based subtitle format used on BDs/HD-DVDs
Duration                                 : 1 h 30 min
Bit rate                                 : 66.2 kb/s
Frame rate                               : 0.496 FPS
Count of elements                        : 2686
Stream size                              : 42.8 MiB (1%)
Title                                    : cht&eng
Language                                 : Chinese
Default                                  : No
Forced                                   : No
Original source medium                   : Blu-ray
Text #3
ID                                       : 5
ID in the original source medium         : 4611 (0x1203)
Format                                   : PGS
Muxing mode                              : zlib
Codec ID                                 : S_HDMV/PGS
Codec ID/Info                            : Picture based subtitle format used on BDs/HD-DVDs
Duration                                 : 1 h 30 min
Bit rate                                 : 37.5 kb/s
Frame rate                               : 0.496 FPS
Count of elements                        : 2686
Stream size                              : 24.2 MiB (0%)
Title                                    : chs
Language                                 : Chinese
Default                                  : No
Forced                                   : No
Original source medium                   : Blu-ray
Text #4
ID                                       : 6
ID in the original source medium         : 4612 (0x1204)
Format                                   : PGS
Muxing mode                              : zlib
Codec ID                                 : S_HDMV/PGS
Codec ID/Info                            : Picture based subtitle format used on BDs/HD-DVDs
Duration                                 : 1 h 30 min
Bit rate                                 : 37.9 kb/s
Frame rate                               : 0.496 FPS
Count of elements                        : 2686
Stream size                              : 24.5 MiB (0%)
Title                                    : cht
Language                                 : Chinese
Default                                  : No
Forced                                   : No
Original source medium                   : Blu-ray
Text #5
ID                                       : 7
ID in the original source medium         : 4608 (0x1200)
Format                                   : PGS
Muxing mode                              : zlib
Codec ID                                 : S_HDMV/PGS
Codec ID/Info                            : Picture based subtitle format used on BDs/HD-DVDs
Duration                                 : 1 h 28 min
Bit rate                                 : 66.5 kb/s
Frame rate                               : 0.485 FPS
Count of elements                        : 2586
Stream size                              : 42.3 MiB (1%)
Title                                    : eng
Language                                 : English
Default                                  : No
Forced                                   : No
Original source medium                   : Blu-ray
Menu
00:00:00.000                             : en:Chapter 01
00:09:13.135                             : en:Chapter 02
00:15:41.690                             : en:Chapter 03
00:24:22.127                             : en:Chapter 04
00:27:17.677                             : en:Chapter 05
00:31:08.324                             : en:Chapter 06
00:42:32.925                             : en:Chapter 07
00:49:28.715                             : en:Chapter 08
00:56:23.296                             : en:Chapter 09
01:03:16.626                             : en:Chapter 10
01:08:51.001                             : en:Chapter 11
01:11:29.118                             : en:Chapter 12
01:15:43.038                             : en:Chapter 13
01:19:56.082                             : en:Chapter 14
01:21:25.380                             : en:Chapter 15
01:24:45.580                             : en:Chapter 16
部分资源为软字幕,移动端推荐播放器:MxPlayer,nPlayer,infuse ,其他播放器请自行尝试。
部分资源为软字幕,电脑端推荐播放器:PotPlayer,完美解码,KMPLAYER,其他播放器请自行尝试。






~~~~~~~~~~~~~~~~~~~~~~~~~~~~~~~~~~~~~~~~~
[更 早][其它][其它][BD-1080P]雅克·德米的世界[简繁英字幕].The.World.of.Jacques.Demy.1995.CC.1080p.BluRay.x265.10bit.FLAC.1

【文件列表】:


The.World.of.Jacques.Demy.1995.CC.1080p.BluRay.x265.10bit.FLAC.1.0-SONYHD.



【下载地址列表】:


游客
文件下载链接就在这里,在您回复评论成功后才能显示。
请勿回复无意义的灌水内容。


下拉页面到最底部回复或者【点击此处快捷回复】,回复后返回此处即可查看下载链接。
如您没注册本站会员,可以点击注册本站,注册后即可回复下载。



软字幕无法在截图上展现,HDR版本/杜比视界版本截图会出现颜色异常,请使用支持的设备播放!






[img][/img]






[img][/img]

(HDR版本/杜比视界版本,截图会出现颜色异常,请使用支持的设备播放)

小贴士:【影视自媒体解说文案请移步:夏至文案解说网 www.xiazhi.vip

上一篇:[更 早][其它][其它][BD-1080P]雅克·德米的世界[简繁英字幕].The.World.of.Jacques.Demy.1995.CC.1080p.BluRay.x264.FLAC.1.0-SON
下一篇:[2023][大陆][剧情][WEB-4K]望道[60帧率版本][国语配音/中文字幕].Manifesto.2023.2160p.60fps.WEB-DL.HEVC.10bit.DTSE5.1.5Audi
回复

使用道具 举报

您需要登录后才可以回帖 登录 | 立即注册

本版积分规则

Archiver|手机版|小众纪录片影视聚合

GMT+8, 2024-7-22 06:25 , Processed in 0.068655 second(s), 13 queries , Gzip On, Redis On.

Powered by 小众纪录片影视聚合 @2010-2023

Copyright © 2010-2024, https://www.xzjlp.com/.


免责说明:本站所有内容链接、图文介绍等均来自于互联网网友分享,本站仅支持web页面展示和文字介绍,绝不提供在线观看和存储服务,也不参与录制、上传、压片。若本站收录内容无意侵犯贵司版权,请发邮件到【a885185#163.com】联系本站,我们将在第一时间删除侵权内容。谢谢!

快速回复 返回顶部 返回列表