小众纪录片影视聚合

 找回密码
 立即注册
查看: 6|回复: 0

[蓝光电影] [更 早][其它][恐怖][WEB-4K]德古拉之夜[中文字幕].Count.Dracula.1970.2160p.UHD.BluRay.x265.10bit.HDR.DTS-HD.MA2.0-Nuke

[复制链接]

116万

主题

116万

帖子

116万

积分

超级版主

Rank: 8Rank: 8

积分
1167997
发表于 2024-7-9 21:12:21 | 显示全部楼层 |阅读模式


[更 早][其它][恐怖][WEB-4K]德古拉之夜[中文字幕].Count.Dracula.1970.2160p.UHD.BluRay.x265.10bit.HDR.DTS-HD.MA2.0-Nuke

完整标题:德古拉之夜[中文字幕].Count.Dracula.1970.2160p.UHD.BluRay.x265.10bit.HDR.DTS-HD.MA2.0-NukeHD 25.05GB
◎标  题 德古拉之夜
◎译  名 德古拉伯爵 / 德拉库拉之夜 / Count Dracula
◎片  名 Nachts, wenn Dracula erwacht
◎年  代 1970
◎产  地 西班牙 / 西德 / 意大利 / 列支敦士登
◎类  别 恐怖
◎语  言 英语
◎上映日期 1970-04-03
◎IMDb评分 5.6/10 (3422人评价)
◎IMDb链接 https://www.imdb.com/title/tt0065569/
◎豆瓣评分 6.8/10 (298人评价)
◎豆瓣链接 https://movie.douban.com/subject/2139721/
◎片  长 98分钟
◎导  演 赫苏斯·佛朗哥 Jesús Franco
◎编  剧 赫苏斯·佛朗哥 Jesús Franco
       哈利·阿兰·托尔斯 Harry Alan Towers
       布莱姆·斯托克 Bram Stoker
◎演  员 克里斯托弗·李 Christopher Lee
       赫伯特·罗姆 Herbert Lom
       克劳斯·金斯基 Klaus Kinski
       玛丽亚·罗姆 Maria Rohm
       杰克·泰勒 Jack Taylor
       Jesús Puente Jesús Puente
       弗莱德.威廉姆斯 Fred Williams
       Franco Castellani Franco Castellani
       索莱达德·米兰达 Soledad Miranda
       赫苏斯·佛朗哥 Jesús Franco
       保罗·穆勒 Paul Muller
       特雷莎·希梅拉 Teresa Gimpera
       艾玛·科恩 Emma Cohen
       简妮·麦斯翠 Jeannine Mestre
◎简  介
    西班牙知名B级片导演赫苏斯·佛朗哥(才华多到自己给自己编导的电影配乐,电影很有好莱坞范儿)执导,男主角是跟他多次合作(主要合作了博满洲系列)的克里斯托弗·李。另外, 赫伯特·罗姆(汉默版《歌剧魅影》等)、克劳斯·金斯基(《诺斯费拉图》翻版)、 玛丽亚·罗姆(赫苏斯·佛朗哥电影里的常客),杰克·泰勒这几位跟LEE常常搭档的演员们均有参演!电影的亮点除了布景,演员,就是剧本了。电影剧本很用心思,细节到细微词句变化,相信会是原著党最爱的版本。
点击图片可查看大图
软字幕无法在截图上展现,HDR版本/杜比视界版本截图会出现颜色异常,请使用支持的设备播放!
##### MediaInfo ######
General
Unique ID                                : 237283239359224894264850268148151338949 (0xB28316EFEA42558326192D8A4043C7C5)
Complete name                            : Count.Dracula.1970.2160p.UHD.BluRay.x265.10bit.HDR.DTS-HD.MA2.0-NukeHD.mkv
Duration                                 : 1 h 36 min
Overall bit rate mode                    : Variable
Overall bit rate                         : 37.1 Mb/s
Video
ID                                       : 1
ID in the original source medium         : 4113 (0x1011)
Format                                   : HEVC
Format/Info                              : High Efficiency Video Coding
Format profile                           : Main [email protected]@Main
HDR format                               : SMPTE ST 2086, HDR10 compatible
Codec ID                                 : V_MPEGH/ISO/HEVC
Duration                                 : 1 h 36 min
Bit rate                                 : 29.8 Mb/s
Width                                    : 3 840 pixels
Height                                   : 2 160 pixels
Display aspect ratio                     : 16:9
Frame rate mode                          : Constant
Frame rate                               : 23.976 (24000/1001) FPS
Color space                              : YUV
Chroma subsampling                       : 4:2:0 (Type 2)
Bit depth                                : 10 bits
Bits/(Pixel*Frame)                       : 0.150
Stream size                              : 20.1 GiB (80%)
Writing library                          : x265 3.5+100-8f18e3ad3:[Windows][GCC 5.4.0][64 bit] 10bit
Encoding settings                        : cpuid=1111039 / frame-threads=6 / numa-pools=32,32 / wpp / no-pmode / no-pme / no-psnr / no-ssim / log-level=2 / input-csp=1 / input-res=3840x2160 / interlace=0 / total-frames=0 / level-idc=51 / high-tier=1 / uhd-bd=0 / ref=4 / no-allow-non-conformance / repeat-headers / annexb / no-aud / no-eob / no-eos / no-hrd / info / hash=0 / temporal-layers=0 / no-open-gop / min-keyint=1 / keyint=240 / gop-lookahead=0 / bframes=4 / b-adapt=2 / b-pyramid / bframe-bias=0 / rc-lookahead=40 / lookahead-slices=0 / scenecut=40 / no-hist-scenecut / radl=0 / no-splice / no-intra-refresh / ctu=64 / min-cu-size=8 / no-rect / no-amp / max-tu-size=32 / tu-inter-depth=1 / tu-intra-depth=1 / limit-tu=0 / rdoq-level=2 / dynamic-rd=0.00 / no-ssim-rd / signhide / no-tskip / nr-intra=0 / nr-inter=0 / no-constrained-intra / no-strong-intra-smoothing / max-merge=3 / limit-refs=3 / limit-modes / me=2 / subme=4 / merange=57 / temporal-mvp / no-frame-dup / no-hme / weightp / no-weightb / no-analyze-src-pics / deblock=-1:-1 / no-sao / no-sao-non-deblock / rd=4 / selective-sao=0 / no-early-skip / rskip / rskip-edge-threshold=0.050000 / no-fast-intra / no-tskip-fast / no-cu-lossless / no-b-intra / no-splitrd-skip / rdpenalty=0 / psy-rd=2.00 / psy-rdoq=1.00 / no-rd-refine / no-lossless / cbqpoffs=0 / crqpoffs=0 / rc=crf / crf=22.0 / qcomp=0.70 / qpstep=4 / stats-write=0 / stats-read=0 / vbv-maxrate=30001 / vbv-bufsize=20000 / vbv-init=0.9 / min-vbv-fullness=50.0 / max-vbv-fullness=80.0 / crf-max=0.0 / crf-min=0.0 / ipratio=1.40 / pbratio=1.30 / aq-mode=2 / aq-strength=0.80 / no-cutree / zone-count=0 / no-strict-cbr / qg-size=32 / no-rc-grain / qpmax=69 / qpmin=0 / no-const-vbv / sar=1 / overscan=0 / videoformat=5 / range=0 / colorprim=9 / transfer=16 / colormatrix=9 / chromaloc=1 / chromaloc-top=2 / chromaloc-bottom=2 / display-window=0 / master-display=G(13250,34500)B(7500,3000)R(34000,16000)WP(15635,16450)L(10000000,500) / cll=600,200 / min-luma=0 / max-luma=1023 / log2-max-poc-lsb=8 / vui-timing-info / vui-hrd-info / slices=1 / no-opt-qp-pps / no-opt-ref-list-length-pps / no-multi-pass-opt-rps / scenecut-bias=0.05 / no-opt-cu-delta-qp / no-aq-motion / hdr10 / no-hdr10-opt / no-dhdr10-opt / no-idr-recovery-sei / analysis-reuse-level=0 / analysis-save-reuse-level=0 / analysis-load-reuse-level=0 / scale-factor=0 / refine-intra=0 / refine-inter=0 / refine-mv=1 / refine-ctu-distortion=0 / no-limit-sao / ctu-info=0 / no-lowpass-dct / refine-analysis-type=0 / copy-pic=1 / max-ausize-factor=1.0 / no-dynamic-refine / no-single-sei / no-hevc-aq / no-svt / no-field / qp-adaptation-range=1.00 / scenecut-aware-qp=0conformance-window-offsets / right=0 / bottom=0 / decoder-max-rate=0 / no-vbv-live-multi-pass / no-mcstf / no-sbrc
Language                                 : English
Default                                  : No
Forced                                   : No
Color range                              : Limited
Color primaries                          : BT.2020
Transfer characteristics                 : PQ
Matrix coefficients                      : BT.2020 non-constant
Mastering display color primaries        : Display P3
Mastering display luminance              : min: 0.0500 cd/m2, max: 1000 cd/m2
Maximum Content Light Level              : 600 cd/m2
Maximum Frame-Average Light Level        : 200 cd/m2
Original source medium                   : Blu-ray
Audio #1
ID                                       : 2
ID in the original source medium         : 4352 (0x1100)
Format                                   : DTS XLL
Format/Info                              : Digital Theater Systems
Commercial name                          : DTS-HD Master Audio
Codec ID                                 : A_DTS
Duration                                 : 1 h 36 min
Bit rate mode                            : Variable
Bit rate                                 : 1 986 kb/s
Channel(s)                               : 2 channels
Channel layout                           : L R
Sampling rate                            : 48.0 kHz
Frame rate                               : 93.750 FPS (512 SPF)
Bit depth                                : 24 bits
Compression mode                         : Lossless
Stream size                              : 1.34 GiB (5%)
Title                                    : 立体声
Language                                 : English
Default                                  : Yes
Forced                                   : No
Original source medium                   : Blu-ray
Audio #2
ID                                       : 3
ID in the original source medium         : 4352 (0x1100)
Format                                   : DTS
Format/Info                              : Digital Theater Systems
Codec ID                                 : A_DTS
Duration                                 : 1 h 36 min
Bit rate mode                            : Constant
Bit rate                                 : 1 509 kb/s
Channel(s)                               : 2 channels
Channel layout                           : L R
Sampling rate                            : 48.0 kHz
Frame rate                               : 93.750 FPS (512 SPF)
Bit depth                                : 24 bits
Compression mode                         : Lossy
Stream size                              : 1.02 GiB (4%)
Title                                    : 立体声
Language                                 : English
Default                                  : No
Forced                                   : No
Original source medium                   : Blu-ray
Audio #3
ID                                       : 4
ID in the original source medium         : 4353 (0x1101)
Format                                   : DTS XLL
Format/Info                              : Digital Theater Systems
Commercial name                          : DTS-HD Master Audio
Codec ID                                 : A_DTS
Duration                                 : 1 h 36 min
Bit rate mode                            : Variable
Bit rate                                 : 1 997 kb/s
Channel(s)                               : 2 channels
Channel layout                           : L R
Sampling rate                            : 48.0 kHz
Frame rate                               : 93.750 FPS (512 SPF)
Bit depth                                : 24 bits
Compression mode                         : Lossless
Stream size                              : 1.35 GiB (5%)
Title                                    : 立体声
Language                                 : Spanish
Default                                  : No
Forced                                   : No
Original source medium                   : Blu-ray
Audio #4
ID                                       : 5
ID in the original source medium         : 4353 (0x1101)
Format                                   : DTS
Format/Info                              : Digital Theater Systems
Codec ID                                 : A_DTS
Duration                                 : 1 h 36 min
Bit rate mode                            : Constant
Bit rate                                 : 1 509 kb/s
Channel(s)                               : 2 channels
Channel layout                           : L R
Sampling rate                            : 48.0 kHz
Frame rate                               : 93.750 FPS (512 SPF)
Bit depth                                : 24 bits
Compression mode                         : Lossy
Stream size                              : 1.02 GiB (4%)
Title                                    : 立体声
Language                                 : Spanish
Default                                  : No
Forced                                   : No
Original source medium                   : Blu-ray
Audio #5
ID                                       : 6
ID in the original source medium         : 4354 (0x1102)
Format                                   : AC-3
Format/Info                              : Audio Coding 3
Commercial name                          : Dolby Digital
Codec ID                                 : A_AC3
Duration                                 : 1 h 36 min
Bit rate mode                            : Constant
Bit rate                                 : 256 kb/s
Channel(s)                               : 2 channels
Channel layout                           : L R
Sampling rate                            : 48.0 kHz
Frame rate                               : 31.250 FPS (1536 SPF)
Compression mode                         : Lossy
Stream size                              : 177 MiB (1%)
Title                                    : 立体声
Language                                 : English
Service kind                             : Complete Main
Default                                  : No
Forced                                   : No
Original source medium                   : Blu-ray
Text #1
ID                                       : 7
ID in the original source medium         : 4768 (0x12A0)
Format                                   : PGS
Muxing mode                              : zlib
Codec ID                                 : S_HDMV/PGS
Codec ID/Info                            : Picture based subtitle format used on BDs/HD-DVDs
Duration                                 : 1 h 35 min
Bit rate                                 : 18.7 kb/s
Frame rate                               : 0.239 FPS
Count of elements                        : 1373
Stream size                              : 12.8 MiB (0%)
Language                                 : English
Default                                  : No
Forced                                   : No
Original source medium                   : Blu-ray
Text #2
ID                                       : 8
ID in the original source medium         : 4769 (0x12A1)
Format                                   : PGS
Muxing mode                              : zlib
Codec ID                                 : S_HDMV/PGS
Codec ID/Info                            : Picture based subtitle format used on BDs/HD-DVDs
Duration                                 : 1 h 36 min
Bit rate                                 : 15.4 kb/s
Frame rate                               : 0.215 FPS
Count of elements                        : 1245
Stream size                              : 10.6 MiB (0%)
Language                                 : Chinese
Default                                  : No
Forced                                   : No
Original source medium                   : Blu-ray
Text #3
ID                                       : 9
ID in the original source medium         : 4770 (0x12A2)
Format                                   : PGS
Muxing mode                              : zlib
Codec ID                                 : S_HDMV/PGS
Codec ID/Info                            : Picture based subtitle format used on BDs/HD-DVDs
Duration                                 : 1 h 36 min
Bit rate                                 : 15.9 kb/s
Frame rate                               : 0.215 FPS
Count of elements                        : 1245
Stream size                              : 10.9 MiB (0%)
Language                                 : Chinese
Default                                  : No
Forced                                   : No
Original source medium                   : Blu-ray
Menu
00:00:00.000                             : en:章节 01
00:07:05.425                             : en:章节 02
00:13:59.922                             : en:章节 03
00:23:10.097                             : en:章节 04
00:30:14.562                             : en:章节 05
00:39:46.759                             : en:章节 06
00:46:37.586                             : en:章节 07
00:54:32.894                             : en:章节 08
00:59:40.326                             : en:章节 09
01:08:34.443                             : en:章节 10
01:18:06.932                             : en:章节 11
01:27:16.856                             : en:章节 12
部分资源为软字幕,移动端推荐播放器:MxPlayer,nPlayer,infuse ,其他播放器请自行尝试。
部分资源为软字幕,电脑端推荐播放器:PotPlayer,完美解码,KMPLAYER,其他播放器请自行尝试。






~~~~~~~~~~~~~~~~~~~~~~~~~~~~~~~~~~~~~~~~~
[更 早][其它][恐怖][WEB-4K]德古拉之夜[中文字幕].Count.Dracula.1970.2160p.UHD.BluRay.x265.10bit.HDR.DTS-HD.MA2.0-Nuke

【文件列表】:


Count.Dracula.1970.2160p.UHD.BluRay.x265.10bit.HDR.DTS-HD.MA2.0-NukeHD.



【下载地址列表】:


游客
文件下载链接就在这里,在您回复评论成功后才能显示。
请勿回复无意义的灌水内容。


下拉页面到最底部回复或者【点击此处快捷回复】,回复后返回此处即可查看下载链接。
如您没注册本站会员,可以点击注册本站,注册后即可回复下载。



软字幕无法在截图上展现,HDR版本/杜比视界版本截图会出现颜色异常,请使用支持的设备播放!






[img][/img]






[img][/img]

(HDR版本/杜比视界版本,截图会出现颜色异常,请使用支持的设备播放)

小贴士:【影视自媒体解说文案请移步:夏至文案解说网 www.xiazhi.vip

上一篇:[更 早][欧美][喜剧][WEB-4K]妙探寻凶[HDR/杜比视界双版本][中文字幕].Clue.1985.2160p.UHD.BluRay.x265.10bit.HDR.DTS-HD.MA2.0-N
下一篇:[2023][其它][剧情][WEB-1080P]加密币小子[简繁英字幕].Crypto.Boy.2023.1080p.NF.WEB-DL.x264.DDP5.1- 4.02GB
回复

使用道具 举报

您需要登录后才可以回帖 登录 | 立即注册

本版积分规则

Archiver|手机版|小众纪录片影视聚合

GMT+8, 2024-7-25 00:14 , Processed in 0.225934 second(s), 12 queries , Gzip On, Redis On.

Powered by 小众纪录片影视聚合 @2010-2023

Copyright © 2010-2024, https://www.xzjlp.com/.


免责说明:本站所有内容链接、图文介绍等均来自于互联网网友分享,本站仅支持web页面展示和文字介绍,绝不提供在线观看和存储服务,也不参与录制、上传、压片。若本站收录内容无意侵犯贵司版权,请发邮件到【a885185#163.com】联系本站,我们将在第一时间删除侵权内容。谢谢!

快速回复 返回顶部 返回列表