小众纪录片影视聚合

 找回密码
 立即注册
查看: 12|回复: 0

[蓝光电影] [2023][欧美][剧情][WEB-4K]敌人[杜比视界版本][简繁英字幕].FOE.2023.2160p.AMZN.WEB-DL.DDP.5.1.Atmos.DV.H.265- 15.9

[复制链接]

112万

主题

112万

帖子

112万

积分

超级版主

Rank: 8Rank: 8

积分
1128817
发表于 7 天前 | 显示全部楼层 |阅读模式


[2023][欧美][剧情][WEB-4K]敌人[杜比视界版本][简繁英字幕].FOE.2023.2160p.AMZN.WEB-DL.DDP.5.1.Atmos.DV.H.265- 15.9

完整标题:敌人[杜比视界版本][简繁英字幕].FOE.2023.2160p.AMZN.WEB-DL.DDP.5.1.Atmos.DV.H.265-DreamHD 15.91GB
◎标  题 敌人
◎片  名 Foe
◎年  代 2023
◎产  地 美国 / 澳大利亚 / 英国
◎类  别 剧情 / 科幻 / 惊悚
◎语  言 英语
◎上映日期 2023-09-30(纽约电影节) / 2023-10-06(美国)
◎IMDb评分 5.3/10 (2399人评价)
◎IMDb链接 https://www.imdb.com/title/tt8258502/
◎豆瓣评分 5.4/10 (917人评价)
◎豆瓣链接 https://movie.douban.com/subject/35352630/
◎片  长 110分钟
◎导  演 加斯·戴维斯 Garth Davis
◎编  剧 伊恩·里德 Iain Reid
       加斯·戴维斯 Garth Davis
◎演  员 西尔莎·罗南 Saoirse Ronan
       保罗·麦斯卡 Paul Mescal
       亚伦·皮埃尔 Aaron Pierre
       乔丹·霍兹纳 Jordan Chodziesner
       威廉·弗里曼 William Freeman
       加仑·王 Jalen Ong
       帕特里克·威廉姆斯 Patrick Williams
       大卫·伍兹 David Woods
       耶瑟·斯彭斯 Yesse Spence
       莎米塔·斯瓦 Shamita Siva
       塔里·费雷代 Tahlee Fereday
       香农·贝里 Shannon Berry
       内尔·费妮 Nell Feeney
       特雷弗·梅杰 Trevor Major
       加斯珀·巴格 Jasper Bagg
       桑西亚·罗宾逊 Sancia Robinson
       戈兰·D·克鲁特 Goran D. Kleut
       特拉维斯·麦克马洪 Travis McMahon
       亚历桑德罗·古埃雷拉 Alessandro Guerrera
       托尼·格斯特浩克 Tony Ghosthawk
       齐亚·凯利 Zia Kelly
       迈克尔·M·福斯特 Michael M. Foster
       吉姆·克诺贝洛赫 Jim Knobeloch
       贝琳达·麦克洛里 Belinda McClory
       简·哈柏 Jane Harber
       尼古拉斯·丹顿 Nicholas Denton
◎简  介
    在不久的将来,企业权力和环境衰败正在蹂躏着地球。Hen(西尔莎·罗南 Saoirse Ronan 饰)和Junior(保罗·麦斯卡 Paul Mescal 饰)是一对年轻夫妇,结婚七年,在他们与世隔绝的农场过着孤独的生活。一天晚上,一个名叫Terrance(亚伦·皮埃尔 Aaron Pierre 饰)的陌生人敲响了他们的房门,带来的消息让他们的生活陷入了混乱。Junior被随机选中,前往一个围绕地球运行的大型实验空间站。最不寻常的是什么?Junior离开后的一切安排都做好了。Hen没有机会想念他,因为她一秒钟独处的时间都没有。Hen会有熟悉的同伴,促使她做出改变生活的决定。
点击图片可查看大图
软字幕无法在截图上展现,HDR版本/杜比视界版本截图会出现颜色异常,请使用支持的设备播放!
##### MediaInfo ######
General
Unique ID                                : 176841327454777725516628419859009367168 (0x850A669A80DD96E6DECEBA57FBBDEC80)
Complete name                            : FOE.2023.2160p.AMZN.WEB-DL.DDP.5.1.Atmos.DV.H.265-DreamHD.mkv
Duration                                 : 1 h 51 min
Overall bit rate                         : 20.5 Mb/s
Video
ID                                       : 1
Format                                   : HEVC
Format/Info                              : High Efficiency Video Coding
Format profile                           : Main 10@L5@Main
HDR format                               : Dolby Vision, Version 1.0, dvhe.05.06, BL+RPU
Codec ID                                 : V_MPEGH/ISO/HEVC
Duration                                 : 1 h 51 min
Bit rate                                 : 19.9 Mb/s
Width                                    : 3 840 pixels
Height                                   : 2 160 pixels
Display aspect ratio                     : 16:9
Frame rate mode                          : Constant
Frame rate                               : 24.000 FPS
Color space                              : YUV
Chroma subsampling                       : 4:2:0
Bit depth                                : 10 bits
Bits/(Pixel*Frame)                       : 0.100
Stream size                              : 15.5 GiB (97%)
Language                                 : English
Default                                  : Yes
Forced                                   : No
Color range                              : Full
Audio
ID                                       : 2
Format                                   : E-AC-3 JOC
Format/Info                              : Enhanced AC-3 with Joint Object Coding
Commercial name                          : Dolby Digital Plus with Dolby Atmos
Codec ID                                 : A_EAC3
Duration                                 : 1 h 51 min
Bit rate mode                            : Constant
Bit rate                                 : 576 kb/s
Channel(s)                               : 6 channels
Channel layout                           : L R C LFE Ls Rs
Sampling rate                            : 48.0 kHz
Frame rate                               : 31.250 FPS (1536 SPF)
Compression mode                         : Lossy
Stream size                              : 458 MiB (3%)
Language                                 : English
Service kind                             : Complete Main
Default                                  : Yes
Forced                                   : No
Complexity index                         : 16
Number of dynamic objects                : 15
Bed channel count                        : 1 channel
Bed channel configuration                : LFE
Text #1
ID                                       : 3
Format                                   : UTF-8
Codec ID                                 : S_TEXT/UTF8
Codec ID/Info                            : UTF-8 Plain Text
Duration                                 : 1 h 48 min
Bit rate                                 : 52 b/s
Frame rate                               : 0.231 FPS
Count of elements                        : 1513
Stream size                              : 42.0 KiB (0%)
Title                                    : SDH
Language                                 : English
Default                                  : No
Forced                                   : No
Text #2
ID                                       : 4
Format                                   : UTF-8
Codec ID                                 : S_TEXT/UTF8
Codec ID/Info                            : UTF-8 Plain Text
Duration                                 : 1 h 49 min
Bit rate                                 : 36 b/s
Frame rate                               : 0.159 FPS
Count of elements                        : 1044
Stream size                              : 28.8 KiB (0%)
Title                                    : Simplified
Language                                 : Chinese
Default                                  : No
Forced                                   : No
Text #3
ID                                       : 5
Format                                   : UTF-8
Codec ID                                 : S_TEXT/UTF8
Codec ID/Info                            : UTF-8 Plain Text
Duration                                 : 1 h 49 min
Bit rate                                 : 31 b/s
Frame rate                               : 0.159 FPS
Count of elements                        : 1042
Stream size                              : 24.8 KiB (0%)
Title                                    : Traditional
Language                                 : Chinese
Default                                  : No
Forced                                   : No
Text #4
ID                                       : 6
Format                                   : UTF-8
Codec ID                                 : S_TEXT/UTF8
Codec ID/Info                            : UTF-8 Plain Text
Duration                                 : 1 h 49 min
Bit rate                                 : 58 b/s
Frame rate                               : 0.159 FPS
Count of elements                        : 1044
Stream size                              : 46.8 KiB (0%)
Title                                    : world
Language                                 : Arabic
Default                                  : No
Forced                                   : No
Text #5
ID                                       : 7
Format                                   : UTF-8
Codec ID                                 : S_TEXT/UTF8
Codec ID/Info                            : UTF-8 Plain Text
Duration                                 : 1 h 49 min
Bit rate                                 : 35 b/s
Frame rate                               : 0.157 FPS
Count of elements                        : 1030
Stream size                              : 28.5 KiB (0%)
Title                                    : Czechia
Language                                 : Czech
Default                                  : No
Forced                                   : No
Text #6
ID                                       : 8
Format                                   : UTF-8
Codec ID                                 : S_TEXT/UTF8
Codec ID/Info                            : UTF-8 Plain Text
Duration                                 : 1 h 49 min
Bit rate                                 : 35 b/s
Frame rate                               : 0.159 FPS
Count of elements                        : 1041
Stream size                              : 28.0 KiB (0%)
Title                                    : Denmark
Language                                 : Danish
Default                                  : No
Forced                                   : No
Text #7
ID                                       : 9
Format                                   : UTF-8
Codec ID                                 : S_TEXT/UTF8
Codec ID/Info                            : UTF-8 Plain Text
Duration                                 : 1 h 49 min
Bit rate                                 : 35 b/s
Frame rate                               : 0.153 FPS
Count of elements                        : 1001
Stream size                              : 28.0 KiB (0%)
Language                                 : German
Default                                  : No
Forced                                   : No
Text #8
ID                                       : 10
Format                                   : UTF-8
Codec ID                                 : S_TEXT/UTF8
Codec ID/Info                            : UTF-8 Plain Text
Duration                                 : 1 h 49 min
Bit rate                                 : 62 b/s
Frame rate                               : 0.157 FPS
Count of elements                        : 1030
Stream size                              : 50.2 KiB (0%)
Title                                    : Greece
Language                                 : Greek
Default                                  : No
Forced                                   : No
Text #9
ID                                       : 11
Format                                   : UTF-8
Codec ID                                 : S_TEXT/UTF8
Codec ID/Info                            : UTF-8 Plain Text
Duration                                 : 1 h 49 min
Bit rate                                 : 34 b/s
Frame rate                               : 0.159 FPS
Count of elements                        : 1040
Stream size                              : 27.8 KiB (0%)
Title                                    : Latin America
Language                                 : Spanish
Default                                  : No
Forced                                   : No
Text #10
ID                                       : 12
Format                                   : UTF-8
Codec ID                                 : S_TEXT/UTF8
Codec ID/Info                            : UTF-8 Plain Text
Duration                                 : 1 h 49 min
Bit rate                                 : 34 b/s
Frame rate                               : 0.158 FPS
Count of elements                        : 1038
Stream size                              : 27.5 KiB (0%)
Language                                 : Spanish
Default                                  : No
Forced                                   : No
Text #11
ID                                       : 13
Format                                   : UTF-8
Codec ID                                 : S_TEXT/UTF8
Codec ID/Info                            : UTF-8 Plain Text
Duration                                 : 1 h 49 min
Bit rate                                 : 34 b/s
Frame rate                               : 0.158 FPS
Count of elements                        : 1036
Stream size                              : 27.3 KiB (0%)
Language                                 : Finnish
Default                                  : No
Forced                                   : No
Text #12
ID                                       : 14
Format                                   : UTF-8
Codec ID                                 : S_TEXT/UTF8
Codec ID/Info                            : UTF-8 Plain Text
Duration                                 : 1 h 49 min
Bit rate                                 : 39 b/s
Frame rate                               : 0.159 FPS
Count of elements                        : 1040
Stream size                              : 31.9 KiB (0%)
Title                                    : Philippines
Language                                 : fil
Default                                  : No
Forced                                   : No
Text #13
ID                                       : 15
Format                                   : UTF-8
Codec ID                                 : S_TEXT/UTF8
Codec ID/Info                            : UTF-8 Plain Text
Duration                                 : 1 h 49 min
Bit rate                                 : 37 b/s
Frame rate                               : 0.159 FPS
Count of elements                        : 1042
Stream size                              : 29.7 KiB (0%)
Title                                    : Canada
Language                                 : French
Default                                  : No
Forced                                   : No
Text #14
ID                                       : 16
Format                                   : UTF-8
Codec ID                                 : S_TEXT/UTF8
Codec ID/Info                            : UTF-8 Plain Text
Duration                                 : 1 h 49 min
Bit rate                                 : 33 b/s
Frame rate                               : 0.158 FPS
Count of elements                        : 1032
Stream size                              : 26.5 KiB (0%)
Language                                 : French
Default                                  : No
Forced                                   : No
Text #15
ID                                       : 17
Format                                   : UTF-8
Codec ID                                 : S_TEXT/UTF8
Codec ID/Info                            : UTF-8 Plain Text
Duration                                 : 1 h 49 min
Bit rate                                 : 57 b/s
Frame rate                               : 0.159 FPS
Count of elements                        : 1044
Stream size                              : 46.3 KiB (0%)
Title                                    : Israel
Language                                 : Hebrew
Default                                  : No
Forced                                   : No
Text #16
ID                                       : 18
Format                                   : UTF-8
Codec ID                                 : S_TEXT/UTF8
Codec ID/Info                            : UTF-8 Plain Text
Duration                                 : 1 h 49 min
Bit rate                                 : 84 b/s
Frame rate                               : 0.159 FPS
Count of elements                        : 1044
Stream size                              : 67.5 KiB (0%)
Title                                    : India
Language                                 : Hindi
Default                                  : No
Forced                                   : No
Text #17
ID                                       : 19
Format                                   : UTF-8
Codec ID                                 : S_TEXT/UTF8
Codec ID/Info                            : UTF-8 Plain Text
Duration                                 : 1 h 49 min
Bit rate                                 : 36 b/s
Frame rate                               : 0.158 FPS
Count of elements                        : 1035
Stream size                              : 29.4 KiB (0%)
Language                                 : Hungarian
Default                                  : No
Forced                                   : No
Text #18
ID                                       : 20
Format                                   : UTF-8
Codec ID                                 : S_TEXT/UTF8
Codec ID/Info                            : UTF-8 Plain Text
Duration                                 : 1 h 49 min
Bit rate                                 : 34 b/s
Frame rate                               : 0.159 FPS
Count of elements                        : 1040
Stream size                              : 27.4 KiB (0%)
Language                                 : Indonesian
Default                                  : No
Forced                                   : No
Text #19
ID                                       : 21
Format                                   : UTF-8
Codec ID                                 : S_TEXT/UTF8
Codec ID/Info                            : UTF-8 Plain Text
Duration                                 : 1 h 49 min
Bit rate                                 : 34 b/s
Frame rate                               : 0.158 FPS
Count of elements                        : 1038
Stream size                              : 27.8 KiB (0%)
Language                                 : Italian
Default                                  : No
Forced                                   : No
Text #20
ID                                       : 22
Format                                   : UTF-8
Codec ID                                 : S_TEXT/UTF8
Codec ID/Info                            : UTF-8 Plain Text
Duration                                 : 1 h 49 min
Bit rate                                 : 31 b/s
Frame rate                               : 0.149 FPS
Count of elements                        : 973
Stream size                              : 25.1 KiB (0%)
Title                                    : Japan
Language                                 : Japanese
Default                                  : No
Forced                                   : No
Text #21
ID                                       : 23
Format                                   : UTF-8
Codec ID                                 : S_TEXT/UTF8
Codec ID/Info                            : UTF-8 Plain Text
Duration                                 : 1 h 49 min
Bit rate                                 : 39 b/s
Frame rate                               : 0.159 FPS
Count of elements                        : 1044
Stream size                              : 31.5 KiB (0%)
Title                                    : South Korea
Language                                 : Korean
Default                                  : No
Forced                                   : No
Text #22
ID                                       : 24
Format                                   : UTF-8
Codec ID                                 : S_TEXT/UTF8
Codec ID/Info                            : UTF-8 Plain Text
Duration                                 : 1 h 49 min
Bit rate                                 : 34 b/s
Frame rate                               : 0.159 FPS
Count of elements                        : 1040
Stream size                              : 27.7 KiB (0%)
Title                                    : Malaysia
Language                                 : Malay
Default                                  : No
Forced                                   : No
Text #23
ID                                       : 25
Format                                   : UTF-8
Codec ID                                 : S_TEXT/UTF8
Codec ID/Info                            : UTF-8 Plain Text
Duration                                 : 1 h 49 min
Bit rate                                 : 35 b/s
Frame rate                               : 0.159 FPS
Count of elements                        : 1041
Stream size                              : 28.2 KiB (0%)
Title                                    : Norway
Language                                 : Norwegian Bokmal
Default                                  : No
Forced                                   : No
Text #24
ID                                       : 26
Format                                   : UTF-8
Codec ID                                 : S_TEXT/UTF8
Codec ID/Info                            : UTF-8 Plain Text
Duration                                 : 1 h 49 min
Bit rate                                 : 31 b/s
Frame rate                               : 0.149 FPS
Count of elements                        : 977
Stream size                              : 25.1 KiB (0%)
Language                                 : Dutch
Default                                  : No
Forced                                   : No
Text #25
ID                                       : 27
Format                                   : UTF-8
Codec ID                                 : S_TEXT/UTF8
Codec ID/Info                            : UTF-8 Plain Text
Duration                                 : 1 h 49 min
Bit rate                                 : 31 b/s
Frame rate                               : 0.157 FPS
Count of elements                        : 1027
Stream size                              : 24.9 KiB (0%)
Language                                 : Polish
Default                                  : No
Forced                                   : No
Text #26
ID                                       : 28
Format                                   : UTF-8
Codec ID                                 : S_TEXT/UTF8
Codec ID/Info                            : UTF-8 Plain Text
Duration                                 : 1 h 49 min
Bit rate                                 : 34 b/s
Frame rate                               : 0.159 FPS
Count of elements                        : 1042
Stream size                              : 27.8 KiB (0%)
Title                                    : Brazil
Language                                 : Portuguese
Default                                  : No
Forced                                   : No
Text #27
ID                                       : 29
Format                                   : UTF-8
Codec ID                                 : S_TEXT/UTF8
Codec ID/Info                            : UTF-8 Plain Text
Duration                                 : 1 h 49 min
Bit rate                                 : 36 b/s
Frame rate                               : 0.158 FPS
Count of elements                        : 1032
Stream size                              : 29.0 KiB (0%)
Language                                 : Portuguese
Default                                  : No
Forced                                   : No
Text #28
ID                                       : 30
Format                                   : UTF-8
Codec ID                                 : S_TEXT/UTF8
Codec ID/Info                            : UTF-8 Plain Text
Duration                                 : 1 h 49 min
Bit rate                                 : 37 b/s
Frame rate                               : 0.159 FPS
Count of elements                        : 1041
Stream size                              : 30.0 KiB (0%)
Language                                 : Romanian
Default                                  : No
Forced                                   : No
Text #29
ID                                       : 31
Format                                   : UTF-8
Codec ID                                 : S_TEXT/UTF8
Codec ID/Info                            : UTF-8 Plain Text
Duration                                 : 1 h 49 min
Bit rate                                 : 58 b/s
Frame rate                               : 0.159 FPS
Count of elements                        : 1042
Stream size                              : 46.6 KiB (0%)
Language                                 : Russian
Default                                  : No
Forced                                   : No
Text #30
ID                                       : 32
Format                                   : UTF-8
Codec ID                                 : S_TEXT/UTF8
Codec ID/Info                            : UTF-8 Plain Text
Duration                                 : 1 h 49 min
Bit rate                                 : 35 b/s
Frame rate                               : 0.158 FPS
Count of elements                        : 1037
Stream size                              : 28.2 KiB (0%)
Title                                    : Sweden
Language                                 : Swedish
Default                                  : No
Forced                                   : No
Text #31
ID                                       : 33
Format                                   : UTF-8
Codec ID                                 : S_TEXT/UTF8
Codec ID/Info                            : UTF-8 Plain Text
Duration                                 : 1 h 49 min
Bit rate                                 : 96 b/s
Frame rate                               : 0.159 FPS
Count of elements                        : 1044
Stream size                              : 76.9 KiB (0%)
Title                                    : India
Language                                 : Tamil
Default                                  : No
Forced                                   : No
Text #32
ID                                       : 34
Format                                   : UTF-8
Codec ID                                 : S_TEXT/UTF8
Codec ID/Info                            : UTF-8 Plain Text
Duration                                 : 1 h 49 min
Bit rate                                 : 94 b/s
Frame rate                               : 0.159 FPS
Count of elements                        : 1044
Stream size                              : 75.5 KiB (0%)
Title                                    : India
Language                                 : Telugu
Default                                  : No
Forced                                   : No
Text #33
ID                                       : 35
Format                                   : UTF-8
Codec ID                                 : S_TEXT/UTF8
Codec ID/Info                            : UTF-8 Plain Text
Duration                                 : 1 h 49 min
Bit rate                                 : 83 b/s
Frame rate                               : 0.159 FPS
Count of elements                        : 1044
Stream size                              : 67.0 KiB (0%)
Language                                 : Thai
Default                                  : No
Forced                                   : No
Text #34
ID                                       : 36
Format                                   : UTF-8
Codec ID                                 : S_TEXT/UTF8
Codec ID/Info                            : UTF-8 Plain Text
Duration                                 : 1 h 49 min
Bit rate                                 : 36 b/s
Frame rate                               : 0.159 FPS
Count of elements                        : 1042
Stream size                              : 29.4 KiB (0%)
Language                                 : Turkish
Default                                  : No
Forced                                   : No
Text #35
ID                                       : 37
Format                                   : UTF-8
Codec ID                                 : S_TEXT/UTF8
Codec ID/Info                            : UTF-8 Plain Text
Duration                                 : 1 h 49 min
Bit rate                                 : 56 b/s
Frame rate                               : 0.159 FPS
Count of elements                        : 1043
Stream size                              : 44.9 KiB (0%)
Title                                    : Ukraine
Language                                 : Ukrainian
Default                                  : No
Forced                                   : No
Text #36
ID                                       : 38
Format                                   : UTF-8
Codec ID                                 : S_TEXT/UTF8
Codec ID/Info                            : UTF-8 Plain Text
Duration                                 : 1 h 49 min
Bit rate                                 : 47 b/s
Frame rate                               : 0.159 FPS
Count of elements                        : 1042
Stream size                              : 38.1 KiB (0%)
Title                                    : Vietnam
Language                                 : Vietnamese
Default                                  : No
Forced                                   : No
Menu
00:00:00.000                             : en:Studio Logo
00:00:42.000                             : en:Scene 2
00:01:00.000                             : en:Scene 3
00:01:16.000                             : en:Scene 4
00:07:18.000                             : en:Scene 5
00:15:16.000                             : en:Scene 6
00:19:43.000                             : en:Scene 7
00:22:05.000                             : en:Scene 8
00:26:17.000                             : en:Scene 9
00:30:27.000                             : en:Scene 10
00:33:45.000                             : en:Scene 11
00:35:37.000                             : en:Scene 12
00:40:06.000                             : en:Scene 13
00:46:12.000                             : en:Scene 14
00:48:00.000                             : en:Scene 15
00:53:35.000                             : en:Scene 16
00:58:21.000                             : en:Scene 17
01:05:47.000                             : en:Scene 18
01:09:03.000                             : en:Scene 19
01:12:42.000                             : en:Scene 20
01:17:20.000                             : en:Scene 21
01:24:50.000                             : en:Scene 22
01:27:58.000                             : en:Scene 23
01:30:27.000                             : en:Scene 24
01:34:52.000                             : en:Scene 25
01:38:15.000                             : en:Scene 26
01:43:23.000                             : en:Title Sequence
01:43:30.000                             : en:End Credits
部分资源为软字幕,移动端推荐播放器:MxPlayer,nPlayer,infuse ,其他播放器请自行尝试。
部分资源为软字幕,电脑端推荐播放器:PotPlayer,完美解码,KMPLAYER,其他播放器请自行尝试。






~~~~~~~~~~~~~~~~~~~~~~~~~~~~~~~~~~~~~~~~~
[2023][欧美][剧情][WEB-4K]敌人[杜比视界版本][简繁英字幕].FOE.2023.2160p.AMZN.WEB-DL.DDP.5.1.Atmos.DV.H.265- 15.9

【文件列表】:


FOE.2023.2160p.AMZN.WEB-DL.DDP.5.1.Atmos.DV.H.265-DreamHD.

FOE.2023.2160p.AMZN.WEB-DL.DDP.5.1.Atmos.DV.H.265-DreamHD.



【下载地址列表】:


游客
文件下载链接就在这里,在您回复评论成功后才能显示。
请勿回复无意义的灌水内容。


下拉页面到最底部回复或者【点击此处快捷回复】,回复后返回此处即可查看下载链接。
如您没注册本站会员,可以点击注册本站,注册后即可回复下载。



软字幕无法在截图上展现,HDR版本/杜比视界版本截图会出现颜色异常,请使用支持的设备播放!






[img][/img]






[img][/img]

(HDR版本/杜比视界版本,截图会出现颜色异常,请使用支持的设备播放)

小贴士:【影视自媒体解说文案请移步:夏至文案解说网 www.xiazhi.vip

上一篇:[2023][欧美][剧情][WEB-1080P]敌人[简繁英字幕].FOE.2023.1080p.AMZN.WEB-DL.DDP.5.1.Atmos.H.264- 3.66GB
下一篇:[2023][欧美][剧情][WEB-4K]敌人[简繁英字幕].FOE.2023.2160p.AMZN.WEB-DL.DDP.5.1.Atmos.HDR10/.H.265- 11.96GB
回复

使用道具 举报

您需要登录后才可以回帖 登录 | 立即注册

本版积分规则

Archiver|手机版|小众纪录片影视聚合

GMT+8, 2024-7-16 23:40 , Processed in 0.333532 second(s), 11 queries , Gzip On, Redis On.

Powered by 小众纪录片影视聚合 @2010-2023

Copyright © 2010-2024, https://www.xzjlp.com/.


免责说明:本站所有内容链接、图文介绍等均来自于互联网网友分享,本站仅支持web页面展示和文字介绍,绝不提供在线观看和存储服务,也不参与录制、上传、压片。若本站收录内容无意侵犯贵司版权,请发邮件到【a885185#163.com】联系本站,我们将在第一时间删除侵权内容。谢谢!

快速回复 返回顶部 返回列表