小众纪录片影视聚合

 找回密码
 立即注册
查看: 5|回复: 0

[蓝光电影] [2023][其它][剧情][WEB-1080P]下一球成名[无字片源].Next.Goal.Wins.2023.1080p.iTunes.WEB-DL.DD.5.1.H.264- 5.03GB

[复制链接]

116万

主题

116万

帖子

116万

积分

超级版主

Rank: 8Rank: 8

积分
1167997
发表于 2024-7-9 21:13:33 | 显示全部楼层 |阅读模式


[2023][其它][剧情][WEB-1080P]下一球成名[无字片源].Next.Goal.Wins.2023.1080p.iTunes.WEB-DL.DD.5.1.H.264- 5.03GB

完整标题:下一球成名[无字片源].Next.Goal.Wins.2023.1080p.iTunes.WEB-DL.DD.5.1.H.264-DreamHD 5.03GB
◎标  题 下一球成名
◎译  名 下一球,胜利(台)
◎片  名 Next Goal Wins
◎年  代 2023
◎产  地 英国 / 美国
◎类  别 剧情 / 喜剧 / 运动
◎语  言 英语
◎上映日期 2023-09-10(多伦多电影节) / 2023-11-17(美国)
◎IMDb评分 6.5/10 (884人评价)
◎IMDb链接 https://www.imdb.com/title/tt10767052/
◎豆瓣链接 https://movie.douban.com/subject/34790875/
◎片  长 97分钟
◎导  演 塔伊加·维迪提 Taika Waititi
◎编  剧 塔伊加·维迪提 Taika Waititi
       艾恩·莫里斯 Iain Morris
◎演  员 迈克尔·法斯宾德 Michael Fassbender
       奥斯卡·凯特利 Oscar Kightley
        Kaimana
       戴维·法恩 David Fane
       瑞切尔·豪斯 Rachel House
       比尤拉·寇尔 Beulah Koale
       塔伊加·维迪提 Taika Waititi
       威尔·阿奈特 Will Arnett
       伊丽莎白·莫斯 Elisabeth Moss
       乌利·拉图基孚 Uli Latukefu
       莎莎·格雷 Sisa Grey
        Semu Filipo
       克里斯·阿洛西奥 Chris Alosio
        Lehi Makisi Falepapalangi
        Ioane Goodhue
        Hio Pelesasa
        William Kahele
       瑞斯·达比 Rhys Darby
       卢克·海姆斯沃斯 Luke Hemsworth
       安格斯·桑普森 Angus Sampson
       凯特琳·德弗 Kaitlyn Dever
       Martin Tyler Martin Tyler
       弗兰基·亚当斯 Frankie Adams
       梅兹·阿特伍德 Mezi Atwood
◎简  介
    In 2001, during the qualifying run for the 2002 Football World Cup, Australia won the American Samoa team 31 to 0, thus sealing the bulkiest result in the history of that sport and confirming the title of “worst team in the world” that Samoa has been displaying since 1983, having lost every single match since becoming a member of FIFA. But that is not all, “All we want is to score one goal” is the request from one of the team’s executives to new coach Thoman Rongen (played by Michael Fassbender), another sportsman who knows a lot about failure. This fiction goes in search of achieving the goal of telling a story that would be considered implausible if it weren’t for the fact that it’s true, and where director Taika Waititi shows a love for both his characters and comedy that could win by a landslide at any competition.                                    源自:https://www.mardelplatafilmfest.com/38/en/pelicula/gol-gana
点击图片可查看大图
软字幕无法在截图上展现,HDR版本/杜比视界版本截图会出现颜色异常,请使用支持的设备播放!
##### MediaInfo ######
General
Unique ID                                : 62900911345467722628507968548579968255 (0x2F52465DCFB7ADD18D84D4ABBABE04FF)
Complete name                            : Next.Goal.Wins.2023.1080p.iTunes.WEB-DL.DD.5.1.H.264-DreamHD.mkv
Duration                                 : 1 h 43 min
Overall bit rate                         : 6 932 kb/s
Video
ID                                       : 1
Format                                   : AVC
Format/Info                              : Advanced Video Codec
Format profile                           : High@L4
Format settings                          : CABAC / 4 Ref Frames
Format settings, CABAC                   : Yes
Format settings, Reference frames        : 4 frames
Codec ID                                 : V_MPEG4/ISO/AVC
Duration                                 : 1 h 43 min
Bit rate                                 : 6 545 kb/s
Width                                    : 1 918 pixels
Height                                   : 958 pixels
Display aspect ratio                     : 2.002
Frame rate mode                          : Variable
Frame rate                               : 24.068 FPS
Color space                              : YUV
Chroma subsampling                       : 4:2:0
Bit depth                                : 8 bits
Scan type                                : Progressive
Bits/(Pixel*Frame)                       : 0.148
Stream size                              : 4.75 GiB (94%)
Language                                 : English
Default                                  : Yes
Forced                                   : No
Color range                              : Limited
Color primaries                          : BT.709
Transfer characteristics                 : BT.709
Matrix coefficients                      : BT.709
Audio
ID                                       : 2
Format                                   : AC-3
Format/Info                              : Audio Coding 3
Commercial name                          : Dolby Digital
Codec ID                                 : A_AC3
Duration                                 : 1 h 43 min
Bit rate mode                            : Constant
Bit rate                                 : 384 kb/s
Channel(s)                               : 6 channels
Channel layout                           : L R C LFE Ls Rs
Sampling rate                            : 48.0 kHz
Frame rate                               : 31.250 FPS (1536 SPF)
Compression mode                         : Lossy
Stream size                              : 285 MiB (6%)
Language                                 : English
Service kind                             : Complete Main
Default                                  : Yes
Forced                                   : No
Text #1
ID                                       : 3
Format                                   : UTF-8
Codec ID                                 : S_TEXT/UTF8
Codec ID/Info                            : UTF-8 Plain Text
Duration                                 : 1 h 42 min
Bit rate                                 : 71 b/s
Frame rate                               : 0.269 FPS
Count of elements                        : 1661
Stream size                              : 53.7 KiB (0%)
Language                                 : English
Default                                  : No
Forced                                   : No
Text #2
ID                                       : 4
Format                                   : UTF-8
Codec ID                                 : S_TEXT/UTF8
Codec ID/Info                            : UTF-8 Plain Text
Duration                                 : 1 h 43 min
Bit rate                                 : 68 b/s
Frame rate                               : 0.274 FPS
Count of elements                        : 1693
Stream size                              : 52.0 KiB (0%)
Title                                    : Latin America
Language                                 : Spanish
Default                                  : No
Forced                                   : No
Text #3
ID                                       : 5
Format                                   : UTF-8
Codec ID                                 : S_TEXT/UTF8
Codec ID/Info                            : UTF-8 Plain Text
Duration                                 : 1 h 43 min
Bit rate                                 : 57 b/s
Frame rate                               : 0.255 FPS
Count of elements                        : 1580
Stream size                              : 43.7 KiB (0%)
Language                                 : French
Default                                  : No
Forced                                   : No
Menu
00:00:00.000                             : en:Chapter 01
00:01:52.737                             : en:Chapter 02
00:04:16.256                             : en:Chapter 03
00:06:32.600                             : en:Chapter 04
00:07:37.332                             : en:Chapter 05
00:11:08.168                             : en:Chapter 06
00:14:51.808                             : en:Chapter 07
00:18:38.326                             : en:Chapter 08
00:24:58.206                             : en:Chapter 09
00:29:26.057                             : en:Chapter 10
00:34:03.376                             : en:Chapter 11
00:37:49.394                             : en:Chapter 12
00:41:41.418                             : en:Chapter 13
00:45:05.872                             : en:Chapter 14
00:49:58.289                             : en:Chapter 15
00:54:30.061                             : en:Chapter 16
00:56:31.516                             : en:Chapter 17
01:00:58.700                             : en:Chapter 18
01:04:58.398                             : en:Chapter 19
01:14:21.336                             : en:Chapter 20
01:21:30.765                             : en:Chapter 21
01:31:07.884                             : en:Chapter 22
01:34:50.148                             : en:Chapter 23
01:36:14.149                             : en:Chapter 24
部分资源为软字幕,移动端推荐播放器:MxPlayer,nPlayer,infuse ,其他播放器请自行尝试。
部分资源为软字幕,电脑端推荐播放器:PotPlayer,完美解码,KMPLAYER,其他播放器请自行尝试。






~~~~~~~~~~~~~~~~~~~~~~~~~~~~~~~~~~~~~~~~~
[2023][其它][剧情][WEB-1080P]下一球成名[无字片源].Next.Goal.Wins.2023.1080p.iTunes.WEB-DL.DD.5.1.H.264- 5.03GB

【文件列表】:


Next.Goal.Wins.2023.1080p.iTunes.WEB-DL.DD.5.1.H.264-DreamHD.



【下载地址列表】:


游客
文件下载链接就在这里,在您回复评论成功后才能显示。
请勿回复无意义的灌水内容。


下拉页面到最底部回复或者【点击此处快捷回复】,回复后返回此处即可查看下载链接。
如您没注册本站会员,可以点击注册本站,注册后即可回复下载。



软字幕无法在截图上展现,HDR版本/杜比视界版本截图会出现颜色异常,请使用支持的设备播放!






[img][/img]






[img][/img]

(HDR版本/杜比视界版本,截图会出现颜色异常,请使用支持的设备播放)

小贴士:【影视自媒体解说文案请移步:夏至文案解说网 www.xiazhi.vip

上一篇:[更 早][欧美][喜剧][BD-1080P]非强力春药[中文字幕].Mighty.Aphrodite.1995.Bluray.1080p.AAC2.0.x264- 2.79GB
下一篇:[2023][其它][剧情][WEB-4K]下一球成名[杜比视界版本][无字片源].Next.Goal.Wins.2023.2160p.iTunes.WEB-DL.DD.5.1.DV.H.265-Drea
回复

使用道具 举报

您需要登录后才可以回帖 登录 | 立即注册

本版积分规则

Archiver|手机版|小众纪录片影视聚合

GMT+8, 2024-7-25 02:06 , Processed in 0.081723 second(s), 13 queries , Gzip On, Redis On.

Powered by 小众纪录片影视聚合 @2010-2023

Copyright © 2010-2024, https://www.xzjlp.com/.


免责说明:本站所有内容链接、图文介绍等均来自于互联网网友分享,本站仅支持web页面展示和文字介绍,绝不提供在线观看和存储服务,也不参与录制、上传、压片。若本站收录内容无意侵犯贵司版权,请发邮件到【a885185#163.com】联系本站,我们将在第一时间删除侵权内容。谢谢!

快速回复 返回顶部 返回列表