小众纪录片影视聚合

 找回密码
 立即注册
查看: 8|回复: 0

[蓝光电影] [2021][欧美][剧情][WEB-1080P]马尔科姆与玛丽[中文字幕].Malcolm.and.Marie.2021.1080p.NF.WEB-DL.x264.DDP5.1- 4.21GB

[复制链接]

116万

主题

116万

帖子

116万

积分

超级版主

Rank: 8Rank: 8

积分
1167997
发表于 2024-7-9 21:13:58 | 显示全部楼层 |阅读模式


[2021][欧美][剧情][WEB-1080P]马尔科姆与玛丽[中文字幕].Malcolm.and.Marie.2021.1080p.NF.WEB-DL.x264.DDP5.1- 4.21GB

完整标题:马尔科姆与玛丽[中文字幕].Malcolm.and.Marie.2021.1080p.NF.WEB-DL.x264.DDP5.1-SONYHD 4.21GB
◎标  题 马尔科姆与玛丽
◎译  名 马尔科姆和玛丽 / 电影试爱 / 首映夜
◎片  名 Malcolm & Marie
◎年  代 2021
◎产  地 美国
◎类  别 剧情 / 爱情
◎语  言 英语
◎上映日期 2021-01-29(美国点映) / 2021-02-05(美国网络)
◎IMDb评分 6.6/10 (38487人评价)
◎IMDb链接 https://www.imdb.com/title/tt12676326/
◎豆瓣评分 7.3/10 (5142人评价)
◎豆瓣链接 https://movie.douban.com/subject/35135958/
◎片  长 106分钟
◎导  演 萨姆·莱文森 Sam Levinson
◎编  剧 萨姆·莱文森 Sam Levinson
◎演  员 赞达亚 Zendaya
       约翰·大卫·华盛顿 John David Washington
◎简  介
    讲述一个电影人和女友参加了电影首映庆功会后回家,影片成功在望,名和利唾手可得。而这个美好的夜晚在关于两人关系的一些东西开始曝光后突然转变,考验他们之间爱的力量。##### MediaInfo ######
General
Unique ID                                : 289459459842298971109390243562666789858 (0xD9C3DD38417560E273420864C9170BE2)
Complete name                            : Malcolm.and.Marie.2021.1080p.NF.WEB-DL.x264.DDP5.1-SONYHD.mkv
Duration                                 : 1 h 46 min
Overall bit rate mode                    : Variable
Overall bit rate                         : 5 668 kb/s
Video
ID                                       : 1
Format                                   : AVC
Format/Info                              : Advanced Video Codec
Format profile                           : Main@L4
Format settings                          : CABAC / 3 Ref Frames
Format settings, CABAC                   : Yes
Format settings, Reference frames        : 3 frames
Codec ID                                 : V_MPEG4/ISO/AVC
Duration                                 : 1 h 46 min
Bit rate mode                            : Variable
Bit rate                                 : 5 000 kb/s
Maximum bit rate                         : 7 500 kb/s
Width                                    : 1 920 pixels
Height                                   : 1 080 pixels
Display aspect ratio                     : 16:9
Frame rate mode                          : Constant
Frame rate                               : 24.000 FPS
Color space                              : YUV
Chroma subsampling                       : 4:2:0
Bit depth                                : 8 bits
Scan type                                : Progressive
Bits/(Pixel*Frame)                       : 0.100
Stream size                              : 3.56 GiB (84%)
Writing library                          : x264 core 148 r2727 7d026e8
Encoding settings                        : cabac=1 / ref=3 / deblock=1:0:0 / analyse=0x1:0x111 / me=umh / subme=10 / psy=1 / psy_rd=1.00:0.00 / mixed_ref=1 / me_range=24 / chroma_me=1 / trellis=2 / 8x8dct=0 / cqm=0 / deadzone=21,11 / fast_pskip=1 / chroma_qp_offset=-2 / threads=34 / lookahead_threads=2 / sliced_threads=0 / nr=0 / decimate=1 / interlaced=0 / bluray_compat=0 / stitchable=1 / constrained_intra=0 / bframes=2 / b_pyramid=0 / b_adapt=2 / b_bias=0 / direct=3 / weightb=1 / open_gop=0 / weightp=2 / keyint=240 / keyint_min=121 / scenecut=0 / intra_refresh=0 / rc_lookahead=48 / rc=2pass / mbtree=1 / bitrate=5000 / ratetol=1.0 / qcomp=0.50 / qpmin=6 / qpmax=51 / qpstep=4 / cplxblur=20.0 / qblur=0.5 / vbv_maxrate=7500 / vbv_bufsize=10000 / nal_hrd=vbr / filler=0 / ip_ratio=1.40 / aq=1:1.00
Default                                  : Yes
Forced                                   : No
VENDOR_ID                                : [0][0][0][0]
Audio
ID                                       : 2
Format                                   : E-AC-3 JOC
Format/Info                              : Enhanced AC-3 with Joint Object Coding
Commercial name                          : Dolby Digital Plus with Dolby Atmos
Codec ID                                 : A_EAC3
Duration                                 : 1 h 46 min
Bit rate mode                            : Constant
Bit rate                                 : 768 kb/s
Channel(s)                               : 6 channels
Channel layout                           : L R C LFE Ls Rs
Sampling rate                            : 48.0 kHz
Frame rate                               : 31.250 FPS (1536 SPF)
Bit depth                                : 32 bits
Compression mode                         : Lossy
Stream size                              : 584 MiB (14%)
Title                                    : 英语 [原始]
Language                                 : English
Service kind                             : Complete Main
Default                                  : Yes
Forced                                   : No
VENDOR_ID                                : [0][0][0][0]
Complexity index                         : 16
Number of dynamic objects                : 15
Bed channel count                        : 1 channel
Bed channel configuration                : LFE
Text #1
ID                                       : 3
Format                                   : UTF-8
Codec ID                                 : S_TEXT/UTF8
Codec ID/Info                            : UTF-8 Plain Text
Duration                                 : 1 h 45 min
Title                                    : 繁体中文
Writing library                          : Lavc60.3.100 srt
Language                                 : Chinese
Default                                  : Yes
Forced                                   : No
Text #2
ID                                       : 4
Format                                   : UTF-8
Codec ID                                 : S_TEXT/UTF8
Codec ID/Info                            : UTF-8 Plain Text
Duration                                 : 1 h 45 min
Title                                    : 简体中文
Writing library                          : Lavc60.3.100 srt
Language                                 : Chinese
Default                                  : No
Forced                                   : No
部分资源为软字幕,移动端推荐播放器:MxPlayer,nPlayer,infuse ,其他播放器请自行尝试。
部分资源为软字幕,电脑端推荐播放器:PotPlayer,完美解码,KMPLAYER,其他播放器请自行尝试。






~~~~~~~~~~~~~~~~~~~~~~~~~~~~~~~~~~~~~~~~~
[2021][欧美][剧情][WEB-1080P]马尔科姆与玛丽[中文字幕].Malcolm.and.Marie.2021.1080p.NF.WEB-DL.x264.DDP5.1- 4.21GB

【文件列表】:


Malcolm.and.Marie.2021.1080p.NF.WEB-DL.x264.DDP5.1-SONYHD.



【下载地址列表】:


游客
文件下载链接就在这里,在您回复评论成功后才能显示。
请勿回复无意义的灌水内容。


下拉页面到最底部回复或者【点击此处快捷回复】,回复后返回此处即可查看下载链接。
如您没注册本站会员,可以点击注册本站,注册后即可回复下载。



软字幕无法在截图上展现,HDR版本/杜比视界版本截图会出现颜色异常,请使用支持的设备播放!






[img][/img]






[img][/img]

(HDR版本/杜比视界版本,截图会出现颜色异常,请使用支持的设备播放)

小贴士:【影视自媒体解说文案请移步:夏至文案解说网 www.xiazhi.vip

上一篇:[2018][其它][喜剧][WEB-1080P]狮心女孩[中文字幕].Lionheart.2018.1080p.NF.WEB-DL.x264.DDP5.1- 3.72GB
下一篇:[更 早][韩国][剧情][BD-1080P]我的野蛮女友[国韩多音轨/中文字幕/特效字幕].My.Sassy.Girl.2001.Bluray.1080p.DTS-HDMA5.1.x264-
回复

使用道具 举报

您需要登录后才可以回帖 登录 | 立即注册

本版积分规则

Archiver|手机版|小众纪录片影视聚合

GMT+8, 2024-7-25 02:14 , Processed in 0.305153 second(s), 13 queries , Gzip On, Redis On.

Powered by 小众纪录片影视聚合 @2010-2023

Copyright © 2010-2024, https://www.xzjlp.com/.


免责说明:本站所有内容链接、图文介绍等均来自于互联网网友分享,本站仅支持web页面展示和文字介绍,绝不提供在线观看和存储服务,也不参与录制、上传、压片。若本站收录内容无意侵犯贵司版权,请发邮件到【a885185#163.com】联系本站,我们将在第一时间删除侵权内容。谢谢!

快速回复 返回顶部 返回列表