小众纪录片影视聚合

 找回密码
 立即注册
查看: 9|回复: 0

[蓝光电影] [2019][其它][剧情][BD-1080P]巴克劳[简繁英字幕].Bacurau.2019.1080p.BluRay.x265.10bit.DTS- 8.50GB

[复制链接]

110万

主题

110万

帖子

110万

积分

超级版主

Rank: 8Rank: 8

积分
1100823
发表于 4 天前 | 显示全部楼层 |阅读模式


[2019][其它][剧情][BD-1080P]巴克劳[简繁英字幕].Bacurau.2019.1080p.BluRay.x265.10bit.DTS- 8.50GB

完整标题:巴克劳[简繁英字幕].Bacurau.2019.1080p.BluRay.x265.10bit.DTS-SONYHD 8.50GB
◎标  题 巴克劳
◎译  名 杀戮荒村(台) / 夜鹰
◎片  名 Bacurau
◎年  代 2019
◎产  地 巴西 / 法国
◎类  别 剧情
◎语  言 葡萄牙语 / 英语
◎上映日期 2019-05-15(戛纳电影节) / 2019-08-29(巴西)
◎IMDb评分 7.3/10 (28559人评价)
◎IMDb链接 https://www.imdb.com/title/tt2762506/
◎豆瓣评分 6.8/10 (5140人评价)
◎豆瓣链接 https://movie.douban.com/subject/24389792/
◎片  长 131分钟
◎导  演 儒利亚诺·多赫内利斯 Juliano Dornelles
       小克莱伯·门多萨 Kleber Mendonça Filho
◎编  剧 小克莱伯·门多萨 Kleber Mendonça Filho
       儒利亚诺·多赫内利斯 Juliano Dornelles
◎演  员 芭芭拉·科伦 Bárbara Colen
       托马斯·阿基诺 Thomas Aquino
       西弗罗·佩雷拉 Silvero Pereira
       塔尔德尔·利马 Thardelly Lima
       鲁本斯·桑托斯 Rubens Santos
       威尔逊·拉贝洛 Wilson Rabelo
       卡洛斯·弗朗西斯科 Carlos Francisco
       露西安娜·索扎 Luciana Souza
       卡林·特莱斯 Karine Teles
       安东尼奥·萨博亚 Antonio Saboia
       索尼娅·布拉加 Sonia Braga
       乌多·基尔 Udo Kier
       布达·里拉 Buda Lira
       克莱比亚·索萨 Clebia Sousa
       丹尼·巴博萨 Danny Barbosa
       乔尼·马尔斯 Jonny Mars
       克里斯·杜贝克 Chris Doubek
◎简  介
    在不远的未来,Bacurau 村的女族长卡梅蒂塔逝世,享年94岁,全村都沉浸在悲痛之中。几天后村民们发现村庄从地图上消失了。##### MediaInfo ######
General
Unique ID                                : 328034745211541843366487199891039875950 (0xF6C931A0D3078B3BC6E2580E56E2736E)
Complete name                            : Bacurau.2019.1080p.BluRay.x265.10bit.DTS-SONYHD.mkv
Duration                                 : 2 h 11 min
Overall bit rate                         : 9 281 kb/s
Video
ID                                       : 1
Format                                   : HEVC
Format/Info                              : High Efficiency Video Coding
Format profile                           : Main 10@L4@Main
Codec ID                                 : V_MPEGH/ISO/HEVC
Duration                                 : 2 h 11 min
Bit rate                                 : 7 724 kb/s
Width                                    : 1 920 pixels
Height                                   : 800 pixels
Display aspect ratio                     : 2.40:1
Frame rate mode                          : Constant
Frame rate                               : 24.000 FPS
Color space                              : YUV
Chroma subsampling                       : 4:2:0
Bit depth                                : 10 bits
Bits/(Pixel*Frame)                       : 0.210
Stream size                              : 7.07 GiB (83%)
Writing library                          : x265 3.5g2b25c9ba0+45:[Windows][GCC 10.2.0][64 bit] Yuuki 10bit+8bit+12bit
Encoding settings                        : rc=crf / crf=16.9200 / qcomp=0.60 / qpstep=4 / stats-write=0 / stats-read=0 / no-lossless / no-cu-lossless / aq-mode=3 / aq-strength=0.90 / cbqpoffs=0 / crqpoffs=0 / ipratio=1.40 / pbratio=1.30 / psy-rd=2.00 / psy-rdoq=0.00 / deblock=0:0 / ref=6 / limit-refs=1 / no-limit-modes / bframes=8 / b-adapt=2 / bframe-bias=0 / b-pyramid / b-intra / weightp / weightb / min-keyint=24 / max-keyint=240 / rc-lookahead=24 / gop-lookahead=0 / scenecut=40 / hist-scenecut=0 / radl=0 / max-cu-size=64 / min-cu-size=8 / me=3 / subme=7 / merange=48 / rdoq-level=0 / rd=4 / rdpenalty=0 / dynamic-rd=0.00 / no-rd-refine / ----- / cutree / sao / no-rect / no-amp / no-open-gop / wpp / no-pmode / no-pme / no-psnr / no-ssim / nr-intra=0 / nr-inter=0 / no-constrained-intra / no-strong-intra-smoothing / max-tu-size=32 / tu-inter-depth=1 / tu-intra-depth=1 / limit-tu=0 / qg-size=32 / qpmax=69 / qpmin=0 / ----- / cpuid=1111039 / frame-threads=4 / numa-pools=+ / log-level=2 / input-csp=1 / input-res=1920x800 / interlace=0 / level-idc=0 / high-tier=1 / uhd-bd=0 / no-allow-non-conformance / repeat-headers / aud / no-hrd / info / hash=0 / no-temporal-layers / lookahead-slices=0 / no-splice / no-intra-refresh / no-ssim-rd / signhide / no-tskip / max-merge=3 / temporal-mvp / no-frame-dup / no-hme / no-analyze-src-pics / no-sao-non-deblock / selective-sao=4 / early-skip / rskip / no-fast-intra / no-tskip-fast / no-splitrd-skip / zone-count=0 / no-strict-cbr / no-rc-grain / no-const-vbv / sar=0 / overscan=0 / videoformat=5 / range=0 / colorprim=2 / transfer=2 / colormatrix=2 / chromaloc=0 / display-window=0 / cll=0,0 / min-luma=0 / max-luma=1023 / log2-max-poc-lsb=8 / vui-timing-info / vui-hrd-info / slices=1 / no-opt-qp-pps / no-opt-ref-list-length-pps / no-multi-pass-opt-rps / scenecut-bias=0.05 / hist-threshold=0.03 / no-opt-cu-delta-qp / no-aq-motion / no-hdr10 / no-hdr10-opt / no-dhdr10-opt / no-idr-recovery-sei / analysis-reuse-level=0 / analysis-save-reuse-level=0 / analysis-load-reuse-level=0 / scale-factor=0 / refine-intra=0 / refine-inter=0 / refine-mv=1 / refine-ctu-distortion=0 / no-limit-sao / ctu-info=0 / no-lowpass-dct / refine-analysis-type=0 / copy-pic=1 / max-ausize-factor=1.0 / no-dynamic-refine / no-single-sei / no-hevc-aq / no-svt / no-field / qp-adaptation-range=1.00 / scenecut-aware-qp=0conformance-window-offsets / right=0 / bottom=0 / decoder-max-rate=0 / no-vbv-live-multi-pass
Default                                  : Yes
Forced                                   : No
Audio
ID                                       : 2
ID in the original source medium         : 4352 (0x1100)
Format                                   : DTS
Format/Info                              : Digital Theater Systems
Codec ID                                 : A_DTS
Duration                                 : 2 h 11 min
Bit rate mode                            : Constant
Bit rate                                 : 1 509 kb/s
Channel(s)                               : 6 channels
Channel layout                           : C L R Ls Rs LFE
Sampling rate                            : 48.0 kHz
Frame rate                               : 93.750 FPS (512 SPF)
Bit depth                                : 24 bits
Compression mode                         : Lossy
Stream size                              : 1.38 GiB (16%)
Title                                    : Portuguese
Language                                 : Portuguese
Default                                  : Yes
Forced                                   : No
Original source medium                   : Blu-ray
Text #1
ID                                       : 3
ID in the original source medium         : 4610 (0x1202)
Format                                   : PGS
Muxing mode                              : zlib
Codec ID                                 : S_HDMV/PGS
Codec ID/Info                            : Picture based subtitle format used on BDs/HD-DVDs
Duration                                 : 2 h 0 min
Bit rate                                 : 29.8 kb/s
Frame rate                               : 0.302 FPS
Count of elements                        : 2188
Stream size                              : 25.7 MiB (0%)
Title                                    : chs&eng
Language                                 : Chinese
Default                                  : Yes
Forced                                   : No
Original source medium                   : Blu-ray
Text #2
ID                                       : 4
ID in the original source medium         : 4611 (0x1203)
Format                                   : PGS
Muxing mode                              : zlib
Codec ID                                 : S_HDMV/PGS
Codec ID/Info                            : Picture based subtitle format used on BDs/HD-DVDs
Duration                                 : 2 h 0 min
Bit rate                                 : 30.0 kb/s
Frame rate                               : 0.302 FPS
Count of elements                        : 2188
Stream size                              : 25.9 MiB (0%)
Title                                    : cht&eng
Language                                 : Chinese
Default                                  : No
Forced                                   : No
Original source medium                   : Blu-ray
Text #3
ID                                       : 5
ID in the original source medium         : 4612 (0x1204)
Format                                   : PGS
Muxing mode                              : zlib
Codec ID                                 : S_HDMV/PGS
Codec ID/Info                            : Picture based subtitle format used on BDs/HD-DVDs
Duration                                 : 2 h 0 min
Bit rate                                 : 16.9 kb/s
Frame rate                               : 0.302 FPS
Count of elements                        : 2188
Stream size                              : 14.6 MiB (0%)
Title                                    : chs
Language                                 : Chinese
Default                                  : No
Forced                                   : No
Original source medium                   : Blu-ray
Text #4
ID                                       : 6
ID in the original source medium         : 4613 (0x1205)
Format                                   : PGS
Muxing mode                              : zlib
Codec ID                                 : S_HDMV/PGS
Codec ID/Info                            : Picture based subtitle format used on BDs/HD-DVDs
Duration                                 : 2 h 0 min
Bit rate                                 : 17.1 kb/s
Frame rate                               : 0.302 FPS
Count of elements                        : 2188
Stream size                              : 14.8 MiB (0%)
Title                                    : cht
Language                                 : Chinese
Default                                  : No
Forced                                   : No
Original source medium                   : Blu-ray
Text #5
ID                                       : 7
ID in the original source medium         : 4608 (0x1200)
Format                                   : PGS
Muxing mode                              : zlib
Codec ID                                 : S_HDMV/PGS
Codec ID/Info                            : Picture based subtitle format used on BDs/HD-DVDs
Duration                                 : 1 h 59 min
Bit rate                                 : 11.5 kb/s
Frame rate                               : 0.219 FPS
Count of elements                        : 1568
Stream size                              : 9.83 MiB (0%)
Title                                    : eng
Language                                 : English
Default                                  : No
Forced                                   : No
Original source medium                   : Blu-ray
Menu
00:00:00.000                             : en:Chapter 01
00:10:56.166                             : en:Chapter 02
00:21:50.625                             : en:Chapter 03
00:33:28.458                             : en:Chapter 04
00:44:27.375                             : en:Chapter 05
00:57:45.208                             : en:Chapter 06
01:08:52.000                             : en:Chapter 07
01:19:55.125                             : en:Chapter 08
01:32:48.125                             : en:Chapter 09
01:44:11.416                             : en:Chapter 10
01:55:33.333                             : en:Chapter 11
02:05:39.375                             : en:Chapter 12
部分资源为软字幕,移动端推荐播放器:MxPlayer,nPlayer,infuse ,其他播放器请自行尝试。
部分资源为软字幕,电脑端推荐播放器:PotPlayer,完美解码,KMPLAYER,其他播放器请自行尝试。






~~~~~~~~~~~~~~~~~~~~~~~~~~~~~~~~~~~~~~~~~
[2019][其它][剧情][BD-1080P]巴克劳[简繁英字幕].Bacurau.2019.1080p.BluRay.x265.10bit.DTS- 8.50GB

【文件列表】:


Bacurau.2019.1080p.BluRay.x265.10bit.DTS-SONYHD.



【下载地址列表】:


游客
文件下载链接就在这里,在您回复评论成功后才能显示。
请勿回复无意义的灌水内容。


下拉页面到最底部回复或者【点击此处快捷回复】,回复后返回此处即可查看下载链接。
如您没注册本站会员,可以点击注册本站,注册后即可回复下载。



软字幕无法在截图上展现,HDR版本/杜比视界版本截图会出现颜色异常,请使用支持的设备播放!






[img][/img]






[img][/img]

(HDR版本/杜比视界版本,截图会出现颜色异常,请使用支持的设备播放)

小贴士:【影视自媒体解说文案请移步:夏至文案解说网 www.xiazhi.vip

上一篇:[2017][韩国][动作][BD-1080P]犯罪都市[国韩多音轨/中文字幕/特效字幕].The.Outlaws.2017.V2.BluRay.1080p.DTS-HDMA5.1.x265.10bit-Dr
下一篇:[合 集][欧美][合集][WEB-4K]速度与激情9[HDR/杜比视界双版本][共2部合集][国英多音轨/中文字幕/特效字幕].2021.V2.2in1.Bluray.2160p.DoVi.HDR.T
回复

使用道具 举报

您需要登录后才可以回帖 登录 | 立即注册

本版积分规则

Archiver|手机版|小众纪录片影视聚合

GMT+8, 2024-7-13 01:02 , Processed in 0.082453 second(s), 13 queries , Gzip On, Redis On.

Powered by 小众纪录片影视聚合 @2010-2023

Copyright © 2010-2024, https://www.xzjlp.com/.


免责说明:本站所有内容链接、图文介绍等均来自于互联网网友分享,本站仅支持web页面展示和文字介绍,绝不提供在线观看和存储服务,也不参与录制、上传、压片。若本站收录内容无意侵犯贵司版权,请发邮件到【a885185#163.com】联系本站,我们将在第一时间删除侵权内容。谢谢!

快速回复 返回顶部 返回列表