小众纪录片影视聚合

 找回密码
 立即注册
查看: 8|回复: 0

[蓝光电影] [更 早][欧美][剧情][WEB-4K]小镇疑云[HDR/杜比视界双版本][简繁英字幕].Lone.Star.1996.BluRay.2160p.DTS-HD.MA2.0.HDR.DoVi.x265.

[复制链接]

116万

主题

116万

帖子

116万

积分

超级版主

Rank: 8Rank: 8

积分
1167997
发表于 2024-7-9 21:14:30 | 显示全部楼层 |阅读模式


[更 早][欧美][剧情][WEB-4K]小镇疑云[HDR/杜比视界双版本][简繁英字幕].Lone.Star.1996.BluRay.2160p.DTS-HD.MA2.0.HDR.DoVi.x265.

完整标题:小镇疑云[HDR/杜比视界双版本][简繁英字幕].Lone.Star.1996.BluRay.2160p.DTS-HD.MA2.0.HDR.DoVi.x265.10bit-DreamHD 24.63GB
◎标  题 小镇疑云
◎译  名 孤星 / 孤独的恒星 / Lone Star / 致命警徽
◎片  名 Lone Star
◎年  代 1996
◎产  地 美国
◎类  别 剧情 / 爱情 / 悬疑 / 西部
◎语  言 英语
◎上映日期 1996-06-21
◎IMDb评分 7.4/10 (30475人评价)
◎IMDb链接 https://www.imdb.com/title/tt0116905/
◎豆瓣评分 7.4/10 (581人评价)
◎豆瓣链接 https://movie.douban.com/subject/1296167/
◎片  长 135 分钟
◎导  演 约翰·塞尔斯 John Sayles
◎编  剧 约翰·塞尔斯 John Sayles
◎演  员 斯蒂芬·门迪洛 Stephen Mendillo
       克里斯·库珀 Chris Cooper
       伊丽莎白·佩纳 Elizabeth Peña
       奥尼·费达·兰普利 Oni Faida Lampley
       乔·史蒂文斯 Joe Stevens
       克里夫顿·詹姆斯 Clifton James
       Tony Frank Tony Frank
       Miriam Colon Miriam Colon
       克里斯·克里斯托佛森 Kris Kristofferson
       杰夫·莫纳汉 Jeff Monahan
       马修·麦康纳 Matthew McConaughey
       乔·莫顿 Joe Morton
       拉塔尼娅·理查德森 LaTanya Richardson
       Eddie Robinson Eddie Robinson
       罗恩·坎纳达 Ron Canada
       钱德拉·威尔森 Chandra Wilson
       马可·佩雷拉 Marco Perella
       Don Phillips Jr. Don Phillips Jr.
       杰西·博雷格 Jesse Borrego
       托尼·普拉纳 Tony Plana
       理查德·琼斯 Richard Jones
       比阿特丽斯·温德 Beatrice Winde
       加布里埃尔·卡塞斯 Gabriel Casseus
       里奥·伯梅斯特 Leo Burmester
       卡门·拉瓦莱德 Carmen De Lavallade
       菲奈莎马丁内斯 Vanessa Martinez
       泰·斯特雷泽恩 Tay Strathairn
       托尼·阿门多拉 Tony Amendola
       高登·图托西斯 Gordon Tootoosis
       弗兰西斯·麦克多蒙德 Frances McDormand
       John Griesemer John Griesemer
       比尔·法玛尔 Bill Farmer
◎简  介
    两位已卸任的陆军军官,在美国德州南方沙漠某地,意外发现一个警徽和一个骷髅。于是邻近小镇的警察山姆狄斯开始调查这一切的始末。初步调查中,山姆来到一间酒吧,在他和老板的谈话过程中,山姆从老板那里得到一些过去的事情,这其中还包括山姆的父亲鲍迪狄斯和一位恶名昭彰的警长,原来酒吧老板曾经受迫于这个无恶不做的警长,但是又无可奈何。于是,一连串的老故事和新发现由此开始……
点击图片可查看大图
软字幕无法在截图上展现,HDR版本/杜比视界版本截图会出现颜色异常,请使用支持的设备播放!
##### MediaInfo ######
General
Unique ID                                : 75069795278827324260793574327433854447 (0x3879EAAA88DAC564385C142B00A07DEF)
Complete name                            : Lone.Star.1996.BluRay.2160p.DTS-HD.MA2.0.HDR.DoVi.x265.10bit-DreamHD.mkv
Duration                                 : 2 h 15 min
Overall bit rate mode                    : Variable
Overall bit rate                         : 26.0 Mb/s
Video
ID                                       : 1
Format                                   : HEVC
Format/Info                              : High Efficiency Video Coding
Format profile                           : Main 10@L5@Main
HDR format                               : Dolby Vision, Version 1.0, dvhe.08.06, BL+RPU, HDR10 compatible / SMPTE ST 2086, HDR10 compatible
Codec ID                                 : V_MPEGH/ISO/HEVC
Duration                                 : 2 h 15 min
Bit rate                                 : 23.9 Mb/s
Width                                    : 3 840 pixels
Height                                   : 1 604 pixels
Display aspect ratio                     : 2.40:1
Frame rate mode                          : Constant
Frame rate                               : 23.976 (24000/1001) FPS
Color space                              : YUV
Chroma subsampling                       : 4:2:0 (Type 2)
Bit depth                                : 10 bits
Bits/(Pixel*Frame)                       : 0.162
Stream size                              : 22.6 GiB (92%)
Writing library                          : x265 3.5f0c1022b6:[Linux][GCC 10.3.0][64 bit] 10bit
Encoding settings                        : cpuid=1111039 / frame-threads=5 / wpp / no-pmode / no-pme / no-psnr / no-ssim / log-level=4 / input-csp=1 / input-res=3840x1604 / interlace=0 / total-frames=194713 / level-idc=0 / high-tier=1 / uhd-bd=0 / ref=6 / no-allow-non-conformance / repeat-headers / annexb / no-aud / no-hrd / info / hash=0 / no-temporal-layers / no-open-gop / min-keyint=23 / keyint=250 / gop-lookahead=0 / bframes=14 / b-adapt=2 / b-pyramid / bframe-bias=0 / rc-lookahead=75 / lookahead-slices=8 / scenecut=40 / hist-scenecut=0 / radl=0 / no-splice / no-intra-refresh / ctu=32 / min-cu-size=8 / no-rect / no-amp / max-tu-size=32 / tu-inter-depth=1 / tu-intra-depth=1 / limit-tu=0 / rdoq-level=0 / dynamic-rd=0.00 / no-ssim-rd / signhide / no-tskip / nr-intra=0 / nr-inter=0 / no-constrained-intra / no-strong-intra-smoothing / max-merge=3 / limit-refs=1 / no-limit-modes / me=3 / subme=7 / merange=48 / temporal-mvp / no-frame-dup / hme / Level / merange / L0,L1,L2=24,36,48 / weightp / weightb / no-analyze-src-pics / deblock=0:0 / sao / no-sao-non-deblock / rd=4 / selective-sao=4 / early-skip / rskip / no-fast-intra / no-tskip-fast / no-cu-lossless / b-intra / no-splitrd-skip / rdpenalty=2 / psy-rd=2.00 / psy-rdoq=0.00 / no-rd-refine / no-lossless / cbqpoffs=0 / crqpoffs=0 / rc=crf / crf=17.0 / qcomp=0.60 / qpstep=4 / stats-write=0 / stats-read=0 / ipratio=1.40 / pbratio=1.30 / aq-mode=1 / aq-strength=1.00 / cutree / zone-count=0 / no-strict-cbr / qg-size=32 / no-rc-grain / qpmax=69 / qpmin=0 / no-const-vbv / sar=0 / overscan=0 / videoformat=5 / range=0 / colorprim=9 / transfer=16 / colormatrix=9 / chromaloc=1 / chromaloc-top=2 / chromaloc-bottom=2 / display-window=0 / master-display=G(8500,39850)B(6550,2300)R(35400,14600)WP(15635,16450)L(10000000,1) / cll=0,0 / min-luma=0 / max-luma=1023 / log2-max-poc-lsb=8 / vui-timing-info / vui-hrd-info / slices=1 / no-opt-qp-pps / no-opt-ref-list-length-pps / no-multi-pass-opt-rps / scenecut-bias=0.05 / hist-threshold=0.03 / no-opt-cu-delta-qp / aq-motion / hdr10 / no-hdr10-opt / no-dhdr10-opt / no-idr-recovery-sei / analysis-reuse-level=0 / analysis-save-reuse-level=0 / analysis-load-reuse-level=0 / scale-factor=0 / refine-intra=0 / refine-inter=0 / refine-mv=1 / refine-ctu-distortion=0 / no-limit-sao / ctu-info=0 / no-lowpass-dct / refine-analysis-type=0 / copy-pic=1 / max-ausize-factor=1.0 / no-dynamic-refine / no-single-sei / no-hevc-aq / no-svt / no-field / qp-adaptation-range=1.00 / scenecut-aware-qp=0conformance-window-offsets / right=0 / bottom=0 / decoder-max-rate=0 / no-vbv-live-multi-pass
Default                                  : Yes
Forced                                   : No
Color range                              : Limited
Color primaries                          : BT.2020
Transfer characteristics                 : PQ
Matrix coefficients                      : BT.2020 non-constant
Mastering display color primaries        : BT.2020
Mastering display luminance              : min: 0.0001 cd/m2, max: 1000 cd/m2
Audio
ID                                       : 2
Format                                   : DTS XLL
Format/Info                              : Digital Theater Systems
Commercial name                          : DTS-HD Master Audio
Codec ID                                 : A_DTS
Duration                                 : 2 h 15 min
Bit rate mode                            : Variable
Bit rate                                 : 2 039 kb/s
Channel(s)                               : 2 channels
Sampling rate                            : 48.0 kHz
Frame rate                               : 93.750 FPS (512 SPF)
Bit depth                                : 24 bits
Compression mode                         : Lossless
Stream size                              : 1.93 GiB (8%)
Title                                    : ENG
Language                                 : English
Default                                  : No
Forced                                   : No
Text #1
ID                                       : 3
Format                                   : PGS
Muxing mode                              : zlib
Codec ID                                 : S_HDMV/PGS
Codec ID/Info                            : Picture based subtitle format used on BDs/HD-DVDs
Duration                                 : 2 h 10 min
Bit rate                                 : 30.1 kb/s
Frame rate                               : 0.426 FPS
Count of elements                        : 3337
Stream size                              : 28.1 MiB (0%)
Title                                    : CHS
Language                                 : Chinese
Default                                  : Yes
Forced                                   : No
Text #2
ID                                       : 4
Format                                   : PGS
Muxing mode                              : zlib
Codec ID                                 : S_HDMV/PGS
Codec ID/Info                            : Picture based subtitle format used on BDs/HD-DVDs
Duration                                 : 2 h 10 min
Bit rate                                 : 30.4 kb/s
Frame rate                               : 0.426 FPS
Count of elements                        : 3337
Stream size                              : 28.5 MiB (0%)
Title                                    : CHT
Language                                 : Chinese
Default                                  : No
Forced                                   : No
Text #3
ID                                       : 5
Format                                   : PGS
Muxing mode                              : zlib
Codec ID                                 : S_HDMV/PGS
Codec ID/Info                            : Picture based subtitle format used on BDs/HD-DVDs
Duration                                 : 2 h 10 min
Bit rate                                 : 54.8 kb/s
Frame rate                               : 0.426 FPS
Count of elements                        : 3337
Stream size                              : 51.2 MiB (0%)
Title                                    : CHS&ENG
Language                                 : Chinese
Default                                  : No
Forced                                   : No
Text #4
ID                                       : 6
Format                                   : PGS
Muxing mode                              : zlib
Codec ID                                 : S_HDMV/PGS
Codec ID/Info                            : Picture based subtitle format used on BDs/HD-DVDs
Duration                                 : 2 h 10 min
Bit rate                                 : 55.2 kb/s
Frame rate                               : 0.426 FPS
Count of elements                        : 3337
Stream size                              : 51.5 MiB (0%)
Title                                    : CHT&ENG
Language                                 : Chinese
Default                                  : No
Forced                                   : No
Text #5
ID                                       : 7
Format                                   : PGS
Muxing mode                              : zlib
Codec ID                                 : S_HDMV/PGS
Codec ID/Info                            : Picture based subtitle format used on BDs/HD-DVDs
Duration                                 : 2 h 14 min
Bit rate                                 : 41.2 kb/s
Frame rate                               : 0.464 FPS
Count of elements                        : 3738
Stream size                              : 39.6 MiB (0%)
Title                                    : ENG
Language                                 : English
Default                                  : No
Forced                                   : No
Menu
00:00:00.000                             : en:Chapter 01
00:04:36.276                             : en:Chapter 02
00:13:34.564                             : en:Chapter 03
00:22:47.908                             : en:Chapter 04
00:30:06.471                             : en:Chapter 05
00:40:47.320                             : en:Chapter 06
00:50:05.461                             : en:Chapter 07
00:57:54.179                             : en:Chapter 08
01:04:36.873                             : en:Chapter 09
01:11:09.223                             : en:Chapter 10
01:19:31.642                             : en:Chapter 11
01:31:41.621                             : en:Chapter 12
01:40:54.715                             : en:Chapter 13
01:50:38.423                             : en:Chapter 14
01:59:27.327                             : en:Chapter 15
02:07:51.622                             : en:Chapter 16
02:15:20.696                             : en:Chapter 17
部分资源为软字幕,移动端推荐播放器:MxPlayer,nPlayer,infuse ,其他播放器请自行尝试。
部分资源为软字幕,电脑端推荐播放器:PotPlayer,完美解码,KMPLAYER,其他播放器请自行尝试。






~~~~~~~~~~~~~~~~~~~~~~~~~~~~~~~~~~~~~~~~~
[更 早][欧美][剧情][WEB-4K]小镇疑云[HDR/杜比视界双版本][简繁英字幕].Lone.Star.1996.BluRay.2160p.DTS-HD.MA2.0.HDR.DoVi.x265.

【文件列表】:


Lone.Star.1996.BluRay.2160p.DTS-HD.MA2.0.HDR.DoVi.x265.10bit-DreamHD.



【下载地址列表】:


游客
文件下载链接就在这里,在您回复评论成功后才能显示。
请勿回复无意义的灌水内容。


下拉页面到最底部回复或者【点击此处快捷回复】,回复后返回此处即可查看下载链接。
如您没注册本站会员,可以点击注册本站,注册后即可回复下载。



软字幕无法在截图上展现,HDR版本/杜比视界版本截图会出现颜色异常,请使用支持的设备播放!






[img][/img]






[img][/img]

(HDR版本/杜比视界版本,截图会出现颜色异常,请使用支持的设备播放)

小贴士:【影视自媒体解说文案请移步:夏至文案解说网 www.xiazhi.vip

上一篇:[合 集][欧美][合集][WEB-4K]速度与激情9[HDR/杜比视界双版本][共2部合集][国英多音轨/中文字幕/特效字幕].2021.V2.2in1.Bluray.2160p.DoVi.HDR.T
下一篇:[更 早][欧美][喜剧][BD-1080P]贵客光临[简繁英字幕].My.Blue.Heaven.1990.1080p.BluRay.x265.10bit.FLAC.2.0- 6.42GB
回复

使用道具 举报

您需要登录后才可以回帖 登录 | 立即注册

本版积分规则

Archiver|手机版|小众纪录片影视聚合

GMT+8, 2024-7-24 22:52 , Processed in 0.347613 second(s), 13 queries , Gzip On, Redis On.

Powered by 小众纪录片影视聚合 @2010-2023

Copyright © 2010-2024, https://www.xzjlp.com/.


免责说明:本站所有内容链接、图文介绍等均来自于互联网网友分享,本站仅支持web页面展示和文字介绍,绝不提供在线观看和存储服务,也不参与录制、上传、压片。若本站收录内容无意侵犯贵司版权,请发邮件到【a885185#163.com】联系本站,我们将在第一时间删除侵权内容。谢谢!

快速回复 返回顶部 返回列表