小众纪录片影视聚合

 找回密码
 立即注册
查看: 11|回复: 0

[蓝光电影] [2023][其它][剧情][WEB-4K]狗神[HDR/杜比视界双版本][简繁英字幕].DogMan.2023.GER.2160p.UHD.BluRay.x265.10bit.DV.TrueHD.7.1

[复制链接]

113万

主题

113万

帖子

113万

积分

超级版主

Rank: 8Rank: 8

积分
1134816
发表于 2024-7-9 21:15:04 | 显示全部楼层 |阅读模式


[2023][其它][剧情][WEB-4K]狗神[HDR/杜比视界双版本][简繁英字幕].DogMan.2023.GER.2160p.UHD.BluRay.x265.10bit.DV.TrueHD.7.1

完整标题:狗神[HDR/杜比视界双版本][简繁英字幕].DogMan.2023.GER.2160p.UHD.BluRay.x265.10bit.DV.TrueHD.7.1.Atmos-SONYHD 23.76GB
◎标  题 狗神
◎译  名 爱犬男 / 人犬(台)
◎片  名 DogMan
◎年  代 2023
◎产  地 法国 / 美国
◎类  别 剧情
◎语  言 英语 / 西班牙语
◎上映日期 2023-12-15(中国大陆) / 2023-08-31(威尼斯国际电影节) / 2023-09-27(法国) / 2023-10-15(平遥国际电影展)
◎IMDb评分 6.8/10 (2429人评价)
◎IMDb链接 https://www.imdb.com/title/tt17009348/
◎豆瓣评分 8.2/10 (77174人评价)
◎豆瓣链接 https://movie.douban.com/subject/35736202/
◎片  长 114分钟
◎导  演 吕克·贝松 Luc Besson
◎编  剧 吕克·贝松 Luc Besson
◎演  员 卡莱伯·兰德里·琼斯 Caleb Landry Jones
       克里斯托弗·邓汉 Christopher Denham
       马里莎·贝伦森 Marisa Berenson
       克雷蒙斯·施伊克 Clemens Schick
       迈克尔·加尔扎 Michael Garza
       乔尼卡·T·吉布斯 Jojo T. Gibbs
       约翰·查尔斯·阿吉拉尔 John Charles Aguilar
       埃文特·斯特朗 Avant Strangel
       德里克·肖 Derek Siow
       詹姆斯·佩顿 James Payton
       埃里克·卡特 Eric Carter
       安布里特·米尔豪斯 Ambrit Millhouse
       本尼特·萨尔茨曼 Bennett Saltzman
       奈玛·赫布拉尔·基乔 Naima Hebrail Kidjo
       朗·安德鲁斯 Luing Andrews
       比安卡·梅尔加 Bianca Melgar
       科琳娜·德拉库尔 Corinne Delacour
       威廉·肖尔蒂诺 William Sciortino
       亚当·斯皮尔斯 Adam Speers
       查尔斯·葛雷 Charles Gray
       哈蒂克 Hatik
       韦利·卡蒂埃 Willy Cartier
       林肯·鲍威尔 Lincoln Powell
       格蕾丝·帕尔玛 Grace Palma
       艾文·坎保 Aven Campau
       埃默里克·伯纳德-琼斯 Emeric Bernard-Jones
       亚历山大·塞蒂内里 Alexander Settineri
       杰夫·曼特尔 Jeff Mantel
       C·C·德内拉 C.C. DeNeira
       娜塔莉·D·伍达德 Natalie Denise Woodard
       杰雷米亚·菲格瑞欧 Jeremiah Figuereo
       皮埃尔·爱德华·贝兰卡 Pierre-Edouard Bellanca
       吉纳维芙·奥尼尔 Genevieve O'Neal
       弗雷德里克·格林 Frederic Guerin
       莱蒂西娅·曼帕卡 Laetitia Mampaka
       梅尔·法格拉·梅德根 Mael Fagla Medegan
◎简  介
    被暴戾的父亲伤害、被囚禁在狗笼生活数年的道格(卡莱伯·兰德里·琼斯 饰),长大后只能与他的数百只狗相互陪伴。然而命运对他的摧残从未停止,在经历了家庭、爱情、生存的一系列痛苦打击后,道格化身为最危险艳丽的“狗神”杀手,和他的狗群一起,向所有伤害过他的人发起了绝不饶恕的复仇与反抗......##### MediaInfo ######
General
Unique ID                                : 88413581536077111467289521163837599296 (0x4283D61F6E1B5293BA72DCC13D4B6E40)
Complete name                            : DogMan.2023.GER.2160p.UHD.BluRay.x265.10bit.DV.TrueHD.7.1.Atmos-SONYHD.mkv
Duration                                 : 1 h 54 min
Overall bit rate mode                    : Variable
Overall bit rate                         : 29.7 Mb/s
Video
ID                                       : 1
Format                                   : HEVC
Format/Info                              : High Efficiency Video Coding
Format profile                           : Main [email protected]@High
HDR format                               : Dolby Vision, Version 1.0, dvhe.08.06, BL+RPU, HDR10 compatible / SMPTE ST 2086, HDR10 compatible
Codec ID                                 : V_MPEGH/ISO/HEVC
Duration                                 : 1 h 54 min
Bit rate                                 : 25.6 Mb/s
Width                                    : 3 840 pixels
Height                                   : 1 604 pixels
Display aspect ratio                     : 2.40:1
Frame rate mode                          : Constant
Frame rate                               : 24.000 FPS
Color space                              : YUV
Chroma subsampling                       : 4:2:0 (Type 2)
Bit depth                                : 10 bits
Bits/(Pixel*Frame)                       : 0.173
Stream size                              : 20.5 GiB (86%)
Writing library                          : x265 3.5g2b25c9ba0+45:[Windows][MSVC 1926][64 bit] Yuuki 10bit+8bit+12bit
Encoding settings                        : rc=crf / crf=17.5900 / qcomp=0.60 / qpstep=4 / stats-write=0 / stats-read=0 / vbv-maxrate=160000 / vbv-bufsize=160000 / vbv-init=0.9 / min-vbv-fullness=50.0 / max-vbv-fullness=80.0 / crf-max=0.0 / crf-min=0.0 / no-lossless / no-cu-lossless / aq-mode=3 / aq-strength=0.70 / cbqpoffs=0 / crqpoffs=0 / ipratio=1.40 / pbratio=1.30 / psy-rd=2.00 / psy-rdoq=2.00 / deblock=-3:-3 / ref=6 / limit-refs=1 / no-limit-modes / bframes=11 / b-adapt=2 / bframe-bias=0 / b-pyramid / b-intra / weightp / weightb / min-keyint=1 / max-keyint=240 / rc-lookahead=72 / gop-lookahead=0 / scenecut=40 / hist-scenecut=0 / radl=0 / max-cu-size=64 / min-cu-size=8 / me=3 / subme=6 / merange=48 / rdoq-level=2 / rd=4 / rdpenalty=0 / dynamic-rd=0.00 / no-rd-refine / ----- / no-cutree / no-sao / no-rect / no-amp / no-open-gop / wpp / no-pmode / no-pme / no-psnr / no-ssim / nr-intra=0 / nr-inter=0 / no-constrained-intra / no-strong-intra-smoothing / max-tu-size=32 / tu-inter-depth=4 / tu-intra-depth=4 / limit-tu=0 / qg-size=32 / qpmax=69 / qpmin=0 / ----- / cpuid=1111039 / frame-threads=4 / numa-pools=+ / log-level=2 / input-csp=1 / input-res=3840x1604 / interlace=0 / level-idc=51 / high-tier=1 / uhd-bd=0 / no-allow-non-conformance / repeat-headers / aud / hrd / info / hash=0 / no-temporal-layers / lookahead-slices=0 / no-splice / no-intra-refresh / no-ssim-rd / signhide / no-tskip / max-merge=5 / temporal-mvp / no-frame-dup / no-hme / analyze-src-pics / no-sao-non-deblock / selective-sao=0 / early-skip / rskip / no-fast-intra / no-tskip-fast / no-splitrd-skip / zone-count=0 / no-strict-cbr / no-rc-grain / no-const-vbv / sar=0 / overscan=0 / videoformat=5 / range=0 / colorprim=9 / transfer=16 / colormatrix=9 / chromaloc=1 / chromaloc-top=2 / chromaloc-bottom=2 / display-window=0 / master-display=G(8500,39850)B(6550,2300)R(35400,14600)WP(15635,16450)L(10000000,1) / cll=0,0 / min-luma=0 / max-luma=1023 / log2-max-poc-lsb=8 / vui-timing-info / vui-hrd-info / slices=1 / no-opt-qp-pps / no-opt-ref-list-length-pps / no-multi-pass-opt-rps / scenecut-bias=0.05 / hist-threshold=0.03 / no-opt-cu-delta-qp / no-aq-motion / hdr10 / hdr10-opt / no-dhdr10-opt / no-idr-recovery-sei / analysis-reuse-level=0 / analysis-save-reuse-level=0 / analysis-load-reuse-level=0 / scale-factor=0 / refine-intra=0 / refine-inter=0 / refine-mv=1 / refine-ctu-distortion=0 / no-limit-sao / ctu-info=0 / no-lowpass-dct / refine-analysis-type=0 / copy-pic=1 / max-ausize-factor=1.0 / no-dynamic-refine / no-single-sei / no-hevc-aq / no-svt / no-field / qp-adaptation-range=1.00 / scenecut-aware-qp=0conformance-window-offsets / right=0 / bottom=0 / decoder-max-rate=0 / no-vbv-live-multi-pass
Default                                  : Yes
Forced                                   : No
Color range                              : Limited
Color primaries                          : BT.2020
Transfer characteristics                 : PQ
Matrix coefficients                      : BT.2020 non-constant
Mastering display color primaries        : BT.2020
Mastering display luminance              : min: 0.0001 cd/m2, max: 1000 cd/m2
Audio
ID                                       : 2
ID in the original source medium         : 4352 (0x1100)
Format                                   : MLP FBA 16-ch
Format/Info                              : Meridian Lossless Packing FBA with 16-channel presentation
Commercial name                          : Dolby TrueHD with Dolby Atmos
Codec ID                                 : A_TRUEHD
Duration                                 : 1 h 54 min
Bit rate mode                            : Variable
Bit rate                                 : 3 925 kb/s
Maximum bit rate                         : 6 204 kb/s
Channel(s)                               : 8 channels
Channel layout                           : L R C LFE Ls Rs Lb Rb
Sampling rate                            : 48.0 kHz
Frame rate                               : 1 200.000 FPS (40 SPF)
Compression mode                         : Lossless
Stream size                              : 3.14 GiB (13%)
Title                                    : German
Language                                 : German
Default                                  : Yes
Forced                                   : No
Original source medium                   : Blu-ray
Number of dynamic objects                : 15
Bed channel count                        : 1 channel
Bed channel configuration                : LFE
Text #1
ID                                       : 3
ID in the original source medium         : 4771 (0x12A3)
Format                                   : PGS
Muxing mode                              : zlib
Codec ID                                 : S_HDMV/PGS
Codec ID/Info                            : Picture based subtitle format used on BDs/HD-DVDs
Duration                                 : 1 h 52 min
Bit rate                                 : 59.3 kb/s
Frame rate                               : 0.491 FPS
Count of elements                        : 3310
Stream size                              : 47.7 MiB (0%)
Title                                    : chs&eng
Language                                 : Chinese
Default                                  : Yes
Forced                                   : No
Original source medium                   : Blu-ray
Text #2
ID                                       : 4
ID in the original source medium         : 4772 (0x12A4)
Format                                   : PGS
Muxing mode                              : zlib
Codec ID                                 : S_HDMV/PGS
Codec ID/Info                            : Picture based subtitle format used on BDs/HD-DVDs
Duration                                 : 1 h 52 min
Bit rate                                 : 59.6 kb/s
Frame rate                               : 0.491 FPS
Count of elements                        : 3310
Stream size                              : 47.9 MiB (0%)
Title                                    : cht&eng
Language                                 : Chinese
Default                                  : No
Forced                                   : No
Original source medium                   : Blu-ray
Text #3
ID                                       : 5
ID in the original source medium         : 4773 (0x12A5)
Format                                   : PGS
Muxing mode                              : zlib
Codec ID                                 : S_HDMV/PGS
Codec ID/Info                            : Picture based subtitle format used on BDs/HD-DVDs
Duration                                 : 1 h 52 min
Bit rate                                 : 41.8 kb/s
Frame rate                               : 0.491 FPS
Count of elements                        : 3310
Stream size                              : 33.7 MiB (0%)
Title                                    : chs
Language                                 : Chinese
Default                                  : No
Forced                                   : No
Original source medium                   : Blu-ray
Text #4
ID                                       : 6
ID in the original source medium         : 4774 (0x12A6)
Format                                   : PGS
Muxing mode                              : zlib
Codec ID                                 : S_HDMV/PGS
Codec ID/Info                            : Picture based subtitle format used on BDs/HD-DVDs
Duration                                 : 1 h 52 min
Bit rate                                 : 42.1 kb/s
Frame rate                               : 0.491 FPS
Count of elements                        : 3310
Stream size                              : 33.8 MiB (0%)
Title                                    : cht
Language                                 : Chinese
Default                                  : No
Forced                                   : No
Original source medium                   : Blu-ray
Text #5
ID                                       : 7
ID in the original source medium         : 4768 (0x12A0)
Format                                   : PGS
Muxing mode                              : zlib
Codec ID                                 : S_HDMV/PGS
Codec ID/Info                            : Picture based subtitle format used on BDs/HD-DVDs
Duration                                 : 1 h 46 min
Bit rate                                 : 34.6 kb/s
Frame rate                               : 0.368 FPS
Count of elements                        : 2362
Stream size                              : 26.5 MiB (0%)
Title                                    : German
Language                                 : German
Default                                  : No
Forced                                   : No
Original source medium                   : Blu-ray
Text #6
ID                                       : 8
ID in the original source medium         : 4770 (0x12A2)
Format                                   : PGS
Muxing mode                              : zlib
Codec ID                                 : S_HDMV/PGS
Codec ID/Info                            : Picture based subtitle format used on BDs/HD-DVDs
Duration                                 : 8 s 375 ms
Bit rate                                 : 32.2 kb/s
Frame rate                               : 0.478 FPS
Count of elements                        : 4
Stream size                              : 32.9 KiB (0%)
Title                                    : eng
Language                                 : English
Default                                  : No
Forced                                   : No
Original source medium                   : Blu-ray
Menu
00:00:00.000                             : en:Chapter 01
00:08:31.750                             : en:Chapter 02
00:16:50.707                             : en:Chapter 03
00:27:25.040                             : en:Chapter 04
00:38:54.416                             : en:Chapter 05
00:51:23.000                             : en:Chapter 06
00:59:03.166                             : en:Chapter 07
01:09:22.625                             : en:Chapter 08
01:19:00.457                             : en:Chapter 09
01:29:56.457                             : en:Chapter 10
01:40:20.291                             : en:Chapter 11
01:49:24.625                             : en:Chapter 12
01:54:28.541                             : en:Chapter 13
部分资源为软字幕,移动端推荐播放器:MxPlayer,nPlayer,infuse ,其他播放器请自行尝试。
部分资源为软字幕,电脑端推荐播放器:PotPlayer,完美解码,KMPLAYER,其他播放器请自行尝试。






~~~~~~~~~~~~~~~~~~~~~~~~~~~~~~~~~~~~~~~~~
[2023][其它][剧情][WEB-4K]狗神[HDR/杜比视界双版本][简繁英字幕].DogMan.2023.GER.2160p.UHD.BluRay.x265.10bit.DV.TrueHD.7.1

【文件列表】:


DogMan.2023.GER.2160p.UHD.BluRay.x265.10bit.DV.TrueHD.7.1.Atmos-SONYHD.



【下载地址列表】:


游客
文件下载链接就在这里,在您回复评论成功后才能显示。
请勿回复无意义的灌水内容。


下拉页面到最底部回复或者【点击此处快捷回复】,回复后返回此处即可查看下载链接。
如您没注册本站会员,可以点击注册本站,注册后即可回复下载。



软字幕无法在截图上展现,HDR版本/杜比视界版本截图会出现颜色异常,请使用支持的设备播放!






[img][/img]






[img][/img]

(HDR版本/杜比视界版本,截图会出现颜色异常,请使用支持的设备播放)

小贴士:【影视自媒体解说文案请移步:夏至文案解说网 www.xiazhi.vip

上一篇:[2023][多国][剧情][BD-1080P]可怜的东西 Poor.Things.2023.BluRay.1080p.DTS-HD.MA.5.1.x264-MTeam 25.6G
下一篇:[2023][韩国][剧情][BD-1080P]千博士驱魔研究所[简繁英字幕].Dr.Cheon.and.Lost.Talisman.2023.1080p.BluRay.x264.DTS- 8.4
回复

使用道具 举报

您需要登录后才可以回帖 登录 | 立即注册

本版积分规则

Archiver|手机版|小众纪录片影视聚合

GMT+8, 2024-7-22 07:28 , Processed in 0.126195 second(s), 13 queries , Gzip On, Redis On.

Powered by 小众纪录片影视聚合 @2010-2023

Copyright © 2010-2024, https://www.xzjlp.com/.


免责说明:本站所有内容链接、图文介绍等均来自于互联网网友分享,本站仅支持web页面展示和文字介绍,绝不提供在线观看和存储服务,也不参与录制、上传、压片。若本站收录内容无意侵犯贵司版权,请发邮件到【a885185#163.com】联系本站,我们将在第一时间删除侵权内容。谢谢!

快速回复 返回顶部 返回列表