小众纪录片影视聚合

 找回密码
 立即注册
查看: 2|回复: 0

[蓝光电影] [2023][韩国][剧情][BD-1080P]千博士驱魔研究所[简繁英字幕].Dr.Cheon.and.Lost.Talisman.2023.1080p.BluRay.x265.10bit.DTS-SONY

[复制链接]

116万

主题

116万

帖子

116万

积分

超级版主

Rank: 8Rank: 8

积分
1167997
发表于 2024-7-9 21:15:12 | 显示全部楼层 |阅读模式


[2023][韩国][剧情][BD-1080P]千博士驱魔研究所[简繁英字幕].Dr.Cheon.and.Lost.Talisman.2023.1080p.BluRay.x265.10bit.DTS-SONY

完整标题:千博士驱魔研究所[简繁英字幕].Dr.Cheon.and.Lost.Talisman.2023.1080p.BluRay.x265.10bit.DTS-SONYHD 6.32GB
◎标  题 千博士驱魔研究所
◎译  名 附身 / 千博士和消失的雪景 / Dr. Cheon and Lost Talisma
◎片  名 천박사 퇴마 연구소: 설경의 비밀
◎年  代 2023
◎产  地 韩国
◎类  别 剧情 / 惊悚
◎语  言 韩语
◎上映日期 2023-09-27(韩国)
◎IMDb评分 5.9/10 (498人评价)
◎IMDb链接 https://www.imdb.com/title/tt29005755/
◎豆瓣评分 5.8/10 (3462人评价)
◎豆瓣链接 https://movie.douban.com/subject/35805804/
◎片  长 98分钟
◎导  演 金成植 Seong-sik Kim
◎演  员 姜栋元 Dong-won Kang
       许峻豪 Jun-ho Heo
       李絮 Esom E.
       李东辉 Dong-Hwi Lee
       赵怡贤 Yi-hyun Cho
       李姃垠 Jung-eun Lee
       金智秀 Ji-soo Kim
       金钟秀 Jong-soo Kim
       朴明勋 Myeong-hoon Park
       朴正民 Jeong-min Park
       朴昭怡 So-i Park
◎简  介
    电影《千博士驱魔研究所》改编自同名网漫,讲述虽然听不到鬼,但凭借鬼般的洞察力解决各种事件的假驱魔师"千博士"(姜栋元 饰)受到从未经历过的强烈附身事件的委托而开始的故事。                                    《千博士驱魔研究所》由制作了《老手》《Exit》《摩加迪沙》的外柔内刚公司制作,这也是曾担任《分手的决心》《寄生虫》《惟愿从邪恶中拯救我》助理导演的金成植的长片处女作。##### MediaInfo ######
General
Unique ID                                : 327480637592613161707983055715360450174 (0xF65E7A036B29D13E1E83817B8546267E)
Complete name                            : Dr.Cheon.and.Lost.Talisman.2023.1080p.BluRay.x265.10bit.DTS-SONYHD.mkv
Duration                                 : 1 h 38 min
Overall bit rate                         : 9 187 kb/s
Video
ID                                       : 1
Format                                   : HEVC
Format/Info                              : High Efficiency Video Coding
Format profile                           : Main 10@L4@Main
Codec ID                                 : V_MPEGH/ISO/HEVC
Duration                                 : 1 h 38 min
Bit rate                                 : 7 651 kb/s
Width                                    : 1 920 pixels
Height                                   : 804 pixels
Display aspect ratio                     : 2.40:1
Frame rate mode                          : Constant
Frame rate                               : 23.976 (24000/1001) FPS
Color space                              : YUV
Chroma subsampling                       : 4:2:0
Bit depth                                : 10 bits
Bits/(Pixel*Frame)                       : 0.207
Stream size                              : 5.26 GiB (83%)
Writing library                          : x265 3.5g2b25c9ba0+45:[Windows][GCC 10.2.0][64 bit] Yuuki 10bit+8bit+12bit
Encoding settings                        : rc=crf / crf=14.2400 / qcomp=0.60 / qpstep=4 / stats-write=0 / stats-read=0 / no-lossless / no-cu-lossless / aq-mode=3 / aq-strength=0.90 / cbqpoffs=0 / crqpoffs=0 / ipratio=1.40 / pbratio=1.30 / psy-rd=2.00 / psy-rdoq=0.00 / deblock=0:0 / ref=6 / limit-refs=1 / no-limit-modes / bframes=8 / b-adapt=2 / bframe-bias=0 / b-pyramid / b-intra / weightp / weightb / min-keyint=24 / max-keyint=240 / rc-lookahead=24 / gop-lookahead=0 / scenecut=40 / hist-scenecut=0 / radl=0 / max-cu-size=64 / min-cu-size=8 / me=3 / subme=7 / merange=48 / rdoq-level=0 / rd=4 / rdpenalty=0 / dynamic-rd=0.00 / no-rd-refine / ----- / cutree / sao / no-rect / no-amp / no-open-gop / wpp / no-pmode / no-pme / no-psnr / no-ssim / nr-intra=0 / nr-inter=0 / no-constrained-intra / no-strong-intra-smoothing / max-tu-size=32 / tu-inter-depth=1 / tu-intra-depth=1 / limit-tu=0 / qg-size=32 / qpmax=69 / qpmin=0 / ----- / cpuid=1111039 / frame-threads=4 / numa-pools=+ / log-level=2 / input-csp=1 / input-res=1920x804 / interlace=0 / level-idc=0 / high-tier=1 / uhd-bd=0 / no-allow-non-conformance / repeat-headers / aud / no-hrd / info / hash=0 / no-temporal-layers / lookahead-slices=0 / no-splice / no-intra-refresh / no-ssim-rd / signhide / no-tskip / max-merge=3 / temporal-mvp / no-frame-dup / no-hme / no-analyze-src-pics / no-sao-non-deblock / selective-sao=4 / early-skip / rskip / no-fast-intra / no-tskip-fast / no-splitrd-skip / zone-count=0 / no-strict-cbr / no-rc-grain / no-const-vbv / sar=0 / overscan=0 / videoformat=5 / range=0 / colorprim=2 / transfer=2 / colormatrix=2 / chromaloc=0 / display-window=0 / cll=0,0 / min-luma=0 / max-luma=1023 / log2-max-poc-lsb=8 / vui-timing-info / vui-hrd-info / slices=1 / no-opt-qp-pps / no-opt-ref-list-length-pps / no-multi-pass-opt-rps / scenecut-bias=0.05 / hist-threshold=0.03 / no-opt-cu-delta-qp / no-aq-motion / no-hdr10 / no-hdr10-opt / no-dhdr10-opt / no-idr-recovery-sei / analysis-reuse-level=0 / analysis-save-reuse-level=0 / analysis-load-reuse-level=0 / scale-factor=0 / refine-intra=0 / refine-inter=0 / refine-mv=1 / refine-ctu-distortion=0 / no-limit-sao / ctu-info=0 / no-lowpass-dct / refine-analysis-type=0 / copy-pic=1 / max-ausize-factor=1.0 / no-dynamic-refine / no-single-sei / no-hevc-aq / no-svt / no-field / qp-adaptation-range=1.00 / scenecut-aware-qp=0conformance-window-offsets / right=0 / bottom=0 / decoder-max-rate=0 / no-vbv-live-multi-pass
Default                                  : Yes
Forced                                   : No
Audio
ID                                       : 2
ID in the original source medium         : 4352 (0x1100)
Format                                   : DTS
Format/Info                              : Digital Theater Systems
Codec ID                                 : A_DTS
Duration                                 : 1 h 38 min
Bit rate mode                            : Constant
Bit rate                                 : 1 509 kb/s
Channel(s)                               : 6 channels
Channel layout                           : C L R Ls Rs LFE
Sampling rate                            : 48.0 kHz
Frame rate                               : 93.750 FPS (512 SPF)
Bit depth                                : 16 bits
Compression mode                         : Lossy
Stream size                              : 1.04 GiB (16%)
Title                                    : Korean
Language                                 : Korean
Default                                  : Yes
Forced                                   : No
Original source medium                   : Blu-ray
Text #1
ID                                       : 3
ID in the original source medium         : 4609 (0x1201)
Format                                   : PGS
Muxing mode                              : zlib
Codec ID                                 : S_HDMV/PGS
Codec ID/Info                            : Picture based subtitle format used on BDs/HD-DVDs
Duration                                 : 1 h 34 min
Bit rate                                 : 23.6 kb/s
Frame rate                               : 0.306 FPS
Count of elements                        : 1732
Stream size                              : 15.9 MiB (0%)
Title                                    : chs
Language                                 : Chinese
Default                                  : Yes
Forced                                   : No
Original source medium                   : Blu-ray
Text #2
ID                                       : 4
ID in the original source medium         : 4610 (0x1202)
Format                                   : PGS
Muxing mode                              : zlib
Codec ID                                 : S_HDMV/PGS
Codec ID/Info                            : Picture based subtitle format used on BDs/HD-DVDs
Duration                                 : 1 h 34 min
Bit rate                                 : 23.8 kb/s
Frame rate                               : 0.306 FPS
Count of elements                        : 1732
Stream size                              : 16.0 MiB (0%)
Title                                    : cht
Language                                 : Chinese
Default                                  : No
Forced                                   : No
Original source medium                   : Blu-ray
Text #3
ID                                       : 5
ID in the original source medium         : 4608 (0x1200)
Format                                   : PGS
Muxing mode                              : zlib
Codec ID                                 : S_HDMV/PGS
Codec ID/Info                            : Picture based subtitle format used on BDs/HD-DVDs
Duration                                 : 1 h 34 min
Bit rate                                 : 21.5 kb/s
Frame rate                               : 0.278 FPS
Count of elements                        : 1572
Stream size                              : 14.5 MiB (0%)
Title                                    : eng
Language                                 : English
Default                                  : No
Forced                                   : No
Original source medium                   : Blu-ray
Menu
00:00:00.000                             : en:Chapter 01
00:11:02.078                             : en:Chapter 02
00:20:58.924                             : en:Chapter 03
00:30:55.979                             : en:Chapter 04
00:40:42.898                             : en:Chapter 05
00:50:20.767                             : en:Chapter 06
00:59:34.779                             : en:Chapter 07
01:09:00.261                             : en:Chapter 08
01:18:52.894                             : en:Chapter 09
01:26:52.415                             : en:Chapter 10
部分资源为软字幕,移动端推荐播放器:MxPlayer,nPlayer,infuse ,其他播放器请自行尝试。
部分资源为软字幕,电脑端推荐播放器:PotPlayer,完美解码,KMPLAYER,其他播放器请自行尝试。






~~~~~~~~~~~~~~~~~~~~~~~~~~~~~~~~~~~~~~~~~
[2023][韩国][剧情][BD-1080P]千博士驱魔研究所[简繁英字幕].Dr.Cheon.and.Lost.Talisman.2023.1080p.BluRay.x265.10bit.DTS-SONY

【文件列表】:


Dr.Cheon.and.Lost.Talisman.2023.1080p.BluRay.x265.10bit.DTS-SONYHD.



【下载地址列表】:


游客
文件下载链接就在这里,在您回复评论成功后才能显示。
请勿回复无意义的灌水内容。


下拉页面到最底部回复或者【点击此处快捷回复】,回复后返回此处即可查看下载链接。
如您没注册本站会员,可以点击注册本站,注册后即可回复下载。



软字幕无法在截图上展现,HDR版本/杜比视界版本截图会出现颜色异常,请使用支持的设备播放!






[img][/img]






[img][/img]

(HDR版本/杜比视界版本,截图会出现颜色异常,请使用支持的设备播放)

小贴士:【影视自媒体解说文案请移步:夏至文案解说网 www.xiazhi.vip

上一篇:[2023][韩国][剧情][BD-1080P]千博士驱魔研究所[简繁英字幕].Dr.Cheon.and.Lost.Talisman.2023.1080p.BluRay.x264.DTS- 8.4
下一篇:[更 早][欧美][剧情][BD-1080P]致命ID[国语音轨/简繁英字幕].Identity.2003.1080p.BluRay.x264.DTS- 8.76GB
回复

使用道具 举报

您需要登录后才可以回帖 登录 | 立即注册

本版积分规则

Archiver|手机版|小众纪录片影视聚合

GMT+8, 2024-7-25 03:14 , Processed in 0.084096 second(s), 13 queries , Gzip On, Redis On.

Powered by 小众纪录片影视聚合 @2010-2023

Copyright © 2010-2024, https://www.xzjlp.com/.


免责说明:本站所有内容链接、图文介绍等均来自于互联网网友分享,本站仅支持web页面展示和文字介绍,绝不提供在线观看和存储服务,也不参与录制、上传、压片。若本站收录内容无意侵犯贵司版权,请发邮件到【a885185#163.com】联系本站,我们将在第一时间删除侵权内容。谢谢!

快速回复 返回顶部 返回列表