小众纪录片影视聚合

 找回密码
 立即注册
查看: 10|回复: 0

[蓝光电影] [2024][欧美][喜剧][WEB-4K]贱女孩[无字片源].Mean.Girls.2024.2160p.Paramount/.WEB-DL.DDP.5.1.Atmos.HDR10/.H.265-Dre

[复制链接]

116万

主题

116万

帖子

116万

积分

超级版主

Rank: 8Rank: 8

积分
1167997
发表于 2024-7-9 21:15:52 | 显示全部楼层 |阅读模式


[2024][欧美][喜剧][WEB-4K]贱女孩[无字片源].Mean.Girls.2024.2160p.Paramount/.WEB-DL.DDP.5.1.Atmos.HDR10/.H.265-Dre

完整标题:贱女孩[无字片源].Mean.Girls.2024.2160p.Paramount/.WEB-DL.DDP.5.1.Atmos.HDR10/.H.265-DreamHD 11.79GB
◎标  题 贱女孩
◎译  名 新版贱女孩 / 刻薄女孩 / Mean Girls Musical
◎片  名 Mean Girls
◎年  代 2024
◎产  地 美国
◎类  别 喜剧 / 歌舞
◎语  言 英语
◎上映日期 2024-01-10(法国) / 2024-01-12(美国)
◎IMDb链接 https://www.imdb.com/title/tt11762114/
◎豆瓣评分 5.6/10 (1787人评价)
◎豆瓣链接 https://movie.douban.com/subject/34963556/
◎片  长 112分钟
◎导  演 萨曼莎·杰恩 Samantha Jayne
       小阿图罗·佩雷斯 Arturo Perez Jr.
◎编  剧 蒂娜·菲 Tina Fey
       罗萨林德·怀斯曼 Rosalind Wiseman
◎演  员 安格瑞·赖斯 Angourie Rice
       芮妮·拉普 Reneé Rapp
       奥丽伊·卡瓦洛 Auli'i Cravalho
       杰奎尔·斯皮维 Jaquel Spivey
       阿凡提卡·万达纳普 Avantika Vandanapu
       贝贝·伍德 Bebe Wood
       克里斯托弗·布里尼 Christopher Briney
       珍娜·费舍 Jenna Fischer
       贝茜·菲利普斯 Busy Philipps
       蒂娜·菲 Tina Fey
       蒂姆·麦道斯 Tim Meadows
       琳赛·洛翰 Lindsay Lohan
       乔恩·哈姆 Jon Hamm
       阿什利·朴 Ashley Park
       康纳拉·特利夫 Connor Ratliff
       梅根·西·斯塔莉安 Megan Thee Stallion
       王班 Ben Wang
       布莱恩·阿尔特莫斯 Brian Altemus
        Mahi Alam
        John El-Jor
       阿里·诺塔托马索 Ari Notartomaso
       威尔·菲茨 Will Fitz
       艾莉森·温 Allison Winn
       马希·阿拉姆 Mahi Alam
       加布里埃拉·西拉 Gabriella Cila
◎简  介
    影片改编自2004年蒂娜·菲编剧的同名电影和百老汇音乐剧,故事讲述新转学来的女孩Cady Heron(安格瑞·赖斯 Angourie Rice 饰)如何与“校园女王”Regina George(芮妮·拉普 Reneé Rapp 饰)展开竞争、取而代之。同时她必须学会如何在高中这个最残酷的丛林中保持真实的自己。                                    影片片名其实是“刻薄女孩”的意思,这正是蒂娜·菲创作本片的初衷——有时候对女性最刻薄的反而是女性。
点击图片可查看大图
软字幕无法在截图上展现,HDR版本/杜比视界版本截图会出现颜色异常,请使用支持的设备播放!
##### MediaInfo ######
General
Unique ID                                : 323983295982340615269660792732508989766 (0xF3BCE9C25265615525DC8F5F75CFA946)
Complete name                            : Mean.Girls.2024.2160p.Paramount+.WEB-DL.DDP.5.1.Atmos.HDR10+.H.265-DreamHD.mkv
Duration                                 : 1 h 52 min
Overall bit rate                         : 15.0 Mb/s
Video
ID                                       : 1
Format                                   : HEVC
Format/Info                              : High Efficiency Video Coding
Format profile                           : Main 10@L5@Main
HDR format                               : SMPTE ST 2094 App 4, Version 1, HDR10+ Profile B compatible
Codec ID                                 : V_MPEGH/ISO/HEVC
Duration                                 : 1 h 52 min
Bit rate                                 : 14.2 Mb/s
Width                                    : 3 840 pixels
Height                                   : 2 160 pixels
Display aspect ratio                     : 16:9
Frame rate mode                          : Constant
Frame rate                               : 23.976 (24000/1001) FPS
Color space                              : YUV
Chroma subsampling                       : 4:2:0 (Type 2)
Bit depth                                : 10 bits
Bits/(Pixel*Frame)                       : 0.072
Stream size                              : 11.2 GiB (95%)
Language                                 : English
Default                                  : Yes
Forced                                   : No
Color range                              : Full
Color primaries                          : BT.2020
Transfer characteristics                 : PQ
Matrix coefficients                      : BT.2020 non-constant
Mastering display color primaries        : Display P3
Mastering display luminance              : min: 0.0050 cd/m2, max: 4000 cd/m2
Maximum Content Light Level              : 259 cd/m2
Maximum Frame-Average Light Level        : 120 cd/m2
Audio
ID                                       : 2
Format                                   : E-AC-3 JOC
Format/Info                              : Enhanced AC-3 with Joint Object Coding
Commercial name                          : Dolby Digital Plus with Dolby Atmos
Codec ID                                 : A_EAC3
Duration                                 : 1 h 52 min
Bit rate mode                            : Constant
Bit rate                                 : 768 kb/s
Channel(s)                               : 6 channels
Channel layout                           : L R C LFE Ls Rs
Sampling rate                            : 48.0 kHz
Frame rate                               : 31.250 FPS (1536 SPF)
Compression mode                         : Lossy
Stream size                              : 618 MiB (5%)
Language                                 : English
Service kind                             : Complete Main
Default                                  : Yes
Forced                                   : No
Complexity index                         : 16
Number of dynamic objects                : 15
Bed channel count                        : 1 channel
Bed channel configuration                : LFE
Text #1
ID                                       : 3
Format                                   : UTF-8
Codec ID                                 : S_TEXT/UTF8
Codec ID/Info                            : UTF-8 Plain Text
Duration                                 : 1 h 51 min
Bit rate                                 : 86 b/s
Frame rate                               : 0.327 FPS
Count of elements                        : 2192
Stream size                              : 70.8 KiB (0%)
Title                                    : SDH
Language                                 : English
Default                                  : No
Forced                                   : No
Text #2
ID                                       : 4
Format                                   : UTF-8
Codec ID                                 : S_TEXT/UTF8
Codec ID/Info                            : UTF-8 Plain Text
Duration                                 : 1 h 51 min
Bit rate                                 : 67 b/s
Frame rate                               : 0.260 FPS
Count of elements                        : 1744
Stream size                              : 55.1 KiB (0%)
Title                                    : Mexico (SDH)
Language                                 : Spanish
Default                                  : No
Forced                                   : No
Menu
00:00:00.000                             : en:Chapter 01
01:47:09.000                             : en:Credits
部分资源为软字幕,移动端推荐播放器:MxPlayer,nPlayer,infuse ,其他播放器请自行尝试。
部分资源为软字幕,电脑端推荐播放器:PotPlayer,完美解码,KMPLAYER,其他播放器请自行尝试。






~~~~~~~~~~~~~~~~~~~~~~~~~~~~~~~~~~~~~~~~~
[2024][欧美][喜剧][WEB-4K]贱女孩[无字片源].Mean.Girls.2024.2160p.Paramount/.WEB-DL.DDP.5.1.Atmos.HDR10/.H.265-Dre

【文件列表】:


Mean.Girls.2024.2160p.Paramount+.WEB-DL.DDP.5.1.Atmos.HDR10+.H.265-DreamHD.



【下载地址列表】:


游客
文件下载链接就在这里,在您回复评论成功后才能显示。
请勿回复无意义的灌水内容。


下拉页面到最底部回复或者【点击此处快捷回复】,回复后返回此处即可查看下载链接。
如您没注册本站会员,可以点击注册本站,注册后即可回复下载。



软字幕无法在截图上展现,HDR版本/杜比视界版本截图会出现颜色异常,请使用支持的设备播放!






[img][/img]






[img][/img]

(HDR版本/杜比视界版本,截图会出现颜色异常,请使用支持的设备播放)

小贴士:【影视自媒体解说文案请移步:夏至文案解说网 www.xiazhi.vip

上一篇:[2024][欧美][喜剧][WEB-4K]贱女孩[杜比视界版本][无字片源].Mean.Girls.2024.2160p.Paramount/.WEB-DL.DDP.5.1.Atmos.DV.H.265
下一篇:[2023][欧美][喜剧][WEB-4K]飞鸭向前冲[HDR/杜比视界双版本][国英多音轨/简繁英字幕].Migration.2023.2160p.UHD.BluRay.x265.10bit.DV.Tr
回复

使用道具 举报

您需要登录后才可以回帖 登录 | 立即注册

本版积分规则

Archiver|手机版|小众纪录片影视聚合

GMT+8, 2024-7-25 01:39 , Processed in 0.092376 second(s), 13 queries , Gzip On, Redis On.

Powered by 小众纪录片影视聚合 @2010-2023

Copyright © 2010-2024, https://www.xzjlp.com/.


免责说明:本站所有内容链接、图文介绍等均来自于互联网网友分享,本站仅支持web页面展示和文字介绍,绝不提供在线观看和存储服务,也不参与录制、上传、压片。若本站收录内容无意侵犯贵司版权,请发邮件到【a885185#163.com】联系本站,我们将在第一时间删除侵权内容。谢谢!

快速回复 返回顶部 返回列表