小众纪录片影视聚合

 找回密码
 立即注册
查看: 9|回复: 0

[蓝光电影] [2024][欧美][喜剧][WEB-4K]瑞奇·斯坦尼克[简繁英字幕].Ricky.Stanicky.2024.2160p.AMZN.WEB-DL.DDP5.1.Atmos.H.265- 1

[复制链接]

112万

主题

112万

帖子

112万

积分

超级版主

Rank: 8Rank: 8

积分
1128817
发表于 7 天前 | 显示全部楼层 |阅读模式


[2024][欧美][喜剧][WEB-4K]瑞奇·斯坦尼克[简繁英字幕].Ricky.Stanicky.2024.2160p.AMZN.WEB-DL.DDP5.1.Atmos.H.265- 1

完整标题:瑞奇·斯坦尼克[简繁英字幕].Ricky.Stanicky.2024.2160p.AMZN.WEB-DL.DDP5.1.Atmos.H.265-BATWEB 12.17GB
◎标  题 瑞奇·斯坦尼克
◎片  名 Ricky Stanicky
◎年  代 2024
◎产  地 美国
◎类  别 喜剧
◎语  言 英语
◎上映日期 2024-03-07(美国网络)
◎IMDb链接 https://www.imdb.com/title/tt1660648/
◎豆瓣链接 https://movie.douban.com/subject/10440077/
◎导  演 彼得·法雷里 Peter Farrelly
◎编  剧  Jeffrey Bushell
        Brian Jarvis
        Jim Freeman
       彼得·法雷里 Peter Farrelly
       皮特·琼斯 Pete Jones
       迈克·切罗内 Mike Cerrone
       David Occhino David Occhino
        Jason Decker
       史蒂夫·欧德科克 Steve Oedekerk
◎演  员 约翰·塞纳 John Cena
       扎克·埃夫隆 Zac Efron
       安德鲁·桑提诺 Andrew Santino
       杰梅因·福勒 Jermaine Fowler
       威廉姆·H·梅西 William H. Macy
       莱克斯·斯科特·戴维斯 Lex Scott Davis
       安雅·萨维奇 Anja Savcic
       内森·琼斯 Nathan Jones
       简·巴德勒 Jane Badler
       黛博拉·劳伦斯 Debra Lawrance
       吉姆·克诺贝洛赫 Jim Knobeloch
        James Makalintal
        Jackson Tozer
        Meaghan Fahy
       马塔·卡泽马利克 Marta Kaczmarek
        Eliza Hall
        Belinda Aitken
        Nic Layton
        Eloise Gentle
        Riley Stiles
◎简  介
    三个死党合力创造了一个名为瑞奇·斯坦尼克的虚构人物,当他们需要制造不在场证明时,瑞奇就会出场。
点击图片可查看大图
软字幕无法在截图上展现,HDR版本/杜比视界版本截图会出现颜色异常,请使用支持的设备播放!
##### MediaInfo ######
General
Unique ID                                : 126152600855660299949430350855370623528 (0x5EE81B6E82FEB0AAD124BCCD1DBACA28)
Complete name                            : Ricky.Stanicky.2024.2160p.AMZN.WEB-DL.DDP5.1.Atmos.H.265-BATWEB.mkv
Duration                                 : 1 h 54 min
Overall bit rate                         : 15.2 Mb/s
Video
ID                                       : 1
Format                                   : HEVC
Format/Info                              : High Efficiency Video Coding
Format profile                           : Main@L5@Main
Codec ID                                 : V_MPEGH/ISO/HEVC
Duration                                 : 1 h 54 min
Bit rate                                 : 14.7 Mb/s
Width                                    : 3 840 pixels
Height                                   : 1 920 pixels
Display aspect ratio                     : 2.000
Frame rate mode                          : Constant
Frame rate                               : 24.000 FPS
Color space                              : YUV
Chroma subsampling                       : 4:2:0
Bit depth                                : 8 bits
Bits/(Pixel*Frame)                       : 0.083
Stream size                              : 11.8 GiB (97%)
Default                                  : Yes
Forced                                   : No
Color range                              : Limited
Color primaries                          : BT.709
Transfer characteristics                 : BT.709
Matrix coefficients                      : BT.709
Audio
ID                                       : 2
Format                                   : E-AC-3 JOC
Format/Info                              : Enhanced AC-3 with Joint Object Coding
Commercial name                          : Dolby Digital Plus with Dolby Atmos
Codec ID                                 : A_EAC3
Duration                                 : 1 h 54 min
Bit rate mode                            : Constant
Bit rate                                 : 448 kb/s
Channel(s)                               : 6 channels
Channel layout                           : L R C LFE Ls Rs
Sampling rate                            : 48.0 kHz
Frame rate                               : 31.250 FPS (1536 SPF)
Compression mode                         : Lossy
Stream size                              : 367 MiB (3%)
Title                                    : English (United States) [Dolby Digital Plus with Dolby Atmos 5.1]
Language                                 : English
Service kind                             : Complete Main
Default                                  : Yes
Forced                                   : No
Complexity index                         : 16
Number of dynamic objects                : 15
Bed channel count                        : 1 channel
Bed channel configuration                : LFE
Text #1
ID                                       : 3
Format                                   : UTF-8
Codec ID                                 : S_TEXT/UTF8
Codec ID/Info                            : UTF-8 Plain Text
Duration                                 : 1 h 51 min
Bit rate                                 : 104 b/s
Frame rate                               : 0.392 FPS
Count of elements                        : 2624
Stream size                              : 85.5 KiB (0%)
Title                                    : English (United States) [CC]
Language                                 : English
Default                                  : No
Forced                                   : No
Text #2
ID                                       : 4
Format                                   : UTF-8
Codec ID                                 : S_TEXT/UTF8
Codec ID/Info                            : UTF-8 Plain Text
Duration                                 : 1 h 51 min
Bit rate                                 : 82 b/s
Frame rate                               : 0.287 FPS
Count of elements                        : 1926
Stream size                              : 67.7 KiB (0%)
Title                                    : 中文(简体)
Language                                 : Chinese
Default                                  : Yes
Forced                                   : No
Text #3
ID                                       : 5
Format                                   : UTF-8
Codec ID                                 : S_TEXT/UTF8
Codec ID/Info                            : UTF-8 Plain Text
Duration                                 : 1 h 51 min
Bit rate                                 : 83 b/s
Frame rate                               : 0.287 FPS
Count of elements                        : 1925
Stream size                              : 68.3 KiB (0%)
Title                                    : 中文 (繁體)
Language                                 : Chinese
Default                                  : No
Forced                                   : No
Text #4
ID                                       : 6
Format                                   : UTF-8
Codec ID                                 : S_TEXT/UTF8
Codec ID/Info                            : UTF-8 Plain Text
Duration                                 : 1 h 51 min
Bit rate                                 : 135 b/s
Frame rate                               : 0.287 FPS
Count of elements                        : 1924
Stream size                              : 111 KiB (0%)
Title                                    : ??????? (??????)
Language                                 : Arabic
Default                                  : No
Forced                                   : No
Text #5
ID                                       : 7
Format                                   : UTF-8
Codec ID                                 : S_TEXT/UTF8
Codec ID/Info                            : UTF-8 Plain Text
Duration                                 : 1 h 51 min
Bit rate                                 : 78 b/s
Frame rate                               : 0.282 FPS
Count of elements                        : 1892
Stream size                              : 64.2 KiB (0%)
Title                                    : Català (Espanya)
Language                                 : Catalan
Default                                  : No
Forced                                   : No
Text #6
ID                                       : 8
Format                                   : UTF-8
Codec ID                                 : S_TEXT/UTF8
Codec ID/Info                            : UTF-8 Plain Text
Duration                                 : 1 h 51 min
Bit rate                                 : 86 b/s
Frame rate                               : 0.286 FPS
Count of elements                        : 1916
Stream size                              : 70.4 KiB (0%)
Title                                    : ?e?tina (?esko)
Language                                 : Czech
Default                                  : No
Forced                                   : No
Text #7
ID                                       : 9
Format                                   : UTF-8
Codec ID                                 : S_TEXT/UTF8
Codec ID/Info                            : UTF-8 Plain Text
Duration                                 : 1 h 51 min
Bit rate                                 : 77 b/s
Frame rate                               : 0.286 FPS
Count of elements                        : 1919
Stream size                              : 63.7 KiB (0%)
Title                                    : Dansk (Danmark)
Language                                 : Danish
Default                                  : No
Forced                                   : No
Text #8
ID                                       : 10
Format                                   : UTF-8
Codec ID                                 : S_TEXT/UTF8
Codec ID/Info                            : UTF-8 Plain Text
Duration                                 : 1 h 51 min
Bit rate                                 : 80 b/s
Frame rate                               : 0.286 FPS
Count of elements                        : 1917
Stream size                              : 65.5 KiB (0%)
Title                                    : Deutsch (Deutschland)
Language                                 : German
Default                                  : No
Forced                                   : No
Text #9
ID                                       : 11
Format                                   : UTF-8
Codec ID                                 : S_TEXT/UTF8
Codec ID/Info                            : UTF-8 Plain Text
Duration                                 : 1 h 51 min
Bit rate                                 : 144 b/s
Frame rate                               : 0.286 FPS
Count of elements                        : 1920
Stream size                              : 118 KiB (0%)
Title                                    : Ελληνικ? (Ελλ?δα)
Language                                 : Greek
Default                                  : No
Forced                                   : No
Text #10
ID                                       : 12
Format                                   : UTF-8
Codec ID                                 : S_TEXT/UTF8
Codec ID/Info                            : UTF-8 Plain Text
Duration                                 : 1 h 51 min
Bit rate                                 : 79 b/s
Frame rate                               : 0.286 FPS
Count of elements                        : 1919
Stream size                              : 65.1 KiB (0%)
Title                                    : Espa?ol (Latinoamérica)
Language                                 : Spanish
Default                                  : No
Forced                                   : No
Text #11
ID                                       : 13
Format                                   : UTF-8
Codec ID                                 : S_TEXT/UTF8
Codec ID/Info                            : UTF-8 Plain Text
Duration                                 : 1 h 51 min
Bit rate                                 : 85 b/s
Frame rate                               : 0.286 FPS
Count of elements                        : 1917
Stream size                              : 69.7 KiB (0%)
Title                                    : Espa?ol (Espa?a)
Language                                 : Spanish
Default                                  : No
Forced                                   : No
Text #12
ID                                       : 14
Format                                   : UTF-8
Codec ID                                 : S_TEXT/UTF8
Codec ID/Info                            : UTF-8 Plain Text
Duration                                 : 1 h 51 min
Bit rate                                 : 75 b/s
Frame rate                               : 0.286 FPS
Count of elements                        : 1916
Stream size                              : 61.5 KiB (0%)
Title                                    : Euskara (Espainia)
Language                                 : Basque
Default                                  : No
Forced                                   : No
Text #13
ID                                       : 15
Format                                   : UTF-8
Codec ID                                 : S_TEXT/UTF8
Codec ID/Info                            : UTF-8 Plain Text
Duration                                 : 1 h 51 min
Bit rate                                 : 78 b/s
Frame rate                               : 0.287 FPS
Count of elements                        : 1920
Stream size                              : 64.4 KiB (0%)
Title                                    : Suomi (Suomi)
Language                                 : Finnish
Default                                  : No
Forced                                   : No
Text #14
ID                                       : 16
Format                                   : UTF-8
Codec ID                                 : S_TEXT/UTF8
Codec ID/Info                            : UTF-8 Plain Text
Duration                                 : 1 h 51 min
Bit rate                                 : 85 b/s
Frame rate                               : 0.287 FPS
Count of elements                        : 1921
Stream size                              : 69.6 KiB (0%)
Title                                    : Fran?ais (Canada)
Language                                 : French
Default                                  : No
Forced                                   : No
Text #15
ID                                       : 17
Format                                   : UTF-8
Codec ID                                 : S_TEXT/UTF8
Codec ID/Info                            : UTF-8 Plain Text
Duration                                 : 1 h 51 min
Bit rate                                 : 79 b/s
Frame rate                               : 0.286 FPS
Count of elements                        : 1917
Stream size                              : 65.0 KiB (0%)
Title                                    : Fran?ais (France)
Language                                 : French
Default                                  : No
Forced                                   : No
Text #16
ID                                       : 18
Format                                   : UTF-8
Codec ID                                 : S_TEXT/UTF8
Codec ID/Info                            : UTF-8 Plain Text
Duration                                 : 1 h 51 min
Bit rate                                 : 78 b/s
Frame rate                               : 0.286 FPS
Count of elements                        : 1918
Stream size                              : 64.5 KiB (0%)
Title                                    : Galego (Espa?a)
Language                                 : Galician
Default                                  : No
Forced                                   : No
Text #17
ID                                       : 19
Format                                   : UTF-8
Codec ID                                 : S_TEXT/UTF8
Codec ID/Info                            : UTF-8 Plain Text
Duration                                 : 1 h 51 min
Bit rate                                 : 135 b/s
Frame rate                               : 0.287 FPS
Count of elements                        : 1926
Stream size                              : 111 KiB (0%)
Title                                    : ????? (?????)
Language                                 : Hebrew
Default                                  : No
Forced                                   : No
Text #18
ID                                       : 20
Format                                   : UTF-8
Codec ID                                 : S_TEXT/UTF8
Codec ID/Info                            : UTF-8 Plain Text
Duration                                 : 1 h 51 min
Bit rate                                 : 198 b/s
Frame rate                               : 0.287 FPS
Count of elements                        : 1926
Stream size                              : 162 KiB (0%)
Title                                    : ?????? (????)
Language                                 : Hindi
Default                                  : No
Forced                                   : No
Text #19
ID                                       : 21
Format                                   : UTF-8
Codec ID                                 : S_TEXT/UTF8
Codec ID/Info                            : UTF-8 Plain Text
Duration                                 : 1 h 51 min
Bit rate                                 : 82 b/s
Frame rate                               : 0.286 FPS
Count of elements                        : 1918
Stream size                              : 67.8 KiB (0%)
Title                                    : Magyar (Magyarország)
Language                                 : Hungarian
Default                                  : No
Forced                                   : No
Text #20
ID                                       : 22
Format                                   : UTF-8
Codec ID                                 : S_TEXT/UTF8
Codec ID/Info                            : UTF-8 Plain Text
Duration                                 : 1 h 51 min
Bit rate                                 : 79 b/s
Frame rate                               : 0.287 FPS
Count of elements                        : 1920
Stream size                              : 64.7 KiB (0%)
Title                                    : Bahasa Indonesia (Indonesia)
Language                                 : Indonesian
Default                                  : No
Forced                                   : No
Text #21
ID                                       : 23
Format                                   : UTF-8
Codec ID                                 : S_TEXT/UTF8
Codec ID/Info                            : UTF-8 Plain Text
Duration                                 : 1 h 51 min
Bit rate                                 : 79 b/s
Frame rate                               : 0.286 FPS
Count of elements                        : 1919
Stream size                              : 65.0 KiB (0%)
Title                                    : Italiano (Italia)
Language                                 : Italian
Default                                  : No
Forced                                   : No
Text #22
ID                                       : 24
Format                                   : UTF-8
Codec ID                                 : S_TEXT/UTF8
Codec ID/Info                            : UTF-8 Plain Text
Duration                                 : 1 h 51 min
Bit rate                                 : 67 b/s
Frame rate                               : 0.276 FPS
Count of elements                        : 1853
Stream size                              : 54.9 KiB (0%)
Title                                    : 日本語 (日本)
Language                                 : Japanese
Default                                  : No
Forced                                   : No
Text #23
ID                                       : 25
Format                                   : UTF-8
Codec ID                                 : S_TEXT/UTF8
Codec ID/Info                            : UTF-8 Plain Text
Duration                                 : 1 h 51 min
Bit rate                                 : 188 b/s
Frame rate                               : 0.287 FPS
Count of elements                        : 1926
Stream size                              : 154 KiB (0%)
Title                                    : ????? (????)
Language                                 : Kannada
Default                                  : No
Forced                                   : No
Text #24
ID                                       : 26
Format                                   : UTF-8
Codec ID                                 : S_TEXT/UTF8
Codec ID/Info                            : UTF-8 Plain Text
Duration                                 : 1 h 51 min
Bit rate                                 : 81 b/s
Frame rate                               : 0.287 FPS
Count of elements                        : 1926
Stream size                              : 66.9 KiB (0%)
Title                                    : ??? (????)
Language                                 : Korean
Default                                  : No
Forced                                   : No
Text #25
ID                                       : 27
Format                                   : UTF-8
Codec ID                                 : S_TEXT/UTF8
Codec ID/Info                            : UTF-8 Plain Text
Duration                                 : 1 h 51 min
Bit rate                                 : 255 b/s
Frame rate                               : 0.287 FPS
Count of elements                        : 1926
Stream size                              : 209 KiB (0%)
Title                                    : ?????? (??????)
Language                                 : Malayalam
Default                                  : No
Forced                                   : No
Text #26
ID                                       : 28
Format                                   : UTF-8
Codec ID                                 : S_TEXT/UTF8
Codec ID/Info                            : UTF-8 Plain Text
Duration                                 : 1 h 51 min
Bit rate                                 : 80 b/s
Frame rate                               : 0.286 FPS
Count of elements                        : 1918
Stream size                              : 66.1 KiB (0%)
Title                                    : Bahasa Malaysia (Malaysia)
Language                                 : Malay
Default                                  : No
Forced                                   : No
Text #27
ID                                       : 29
Format                                   : UTF-8
Codec ID                                 : S_TEXT/UTF8
Codec ID/Info                            : UTF-8 Plain Text
Duration                                 : 1 h 51 min
Bit rate                                 : 79 b/s
Frame rate                               : 0.287 FPS
Count of elements                        : 1920
Stream size                              : 64.7 KiB (0%)
Title                                    : Norsk Bokm?l (Norge)
Language                                 : Norwegian Bokmal
Default                                  : No
Forced                                   : No
Text #28
ID                                       : 30
Format                                   : UTF-8
Codec ID                                 : S_TEXT/UTF8
Codec ID/Info                            : UTF-8 Plain Text
Duration                                 : 1 h 51 min
Bit rate                                 : 73 b/s
Frame rate                               : 0.282 FPS
Count of elements                        : 1888
Stream size                              : 60.4 KiB (0%)
Title                                    : Nederlands
Language                                 : Dutch
Default                                  : No
Forced                                   : No
Text #29
ID                                       : 31
Format                                   : UTF-8
Codec ID                                 : S_TEXT/UTF8
Codec ID/Info                            : UTF-8 Plain Text
Duration                                 : 1 h 51 min
Bit rate                                 : 72 b/s
Frame rate                               : 0.285 FPS
Count of elements                        : 1913
Stream size                              : 59.3 KiB (0%)
Title                                    : Polski (Polska)
Language                                 : Polish
Default                                  : No
Forced                                   : No
Text #30
ID                                       : 32
Format                                   : UTF-8
Codec ID                                 : S_TEXT/UTF8
Codec ID/Info                            : UTF-8 Plain Text
Duration                                 : 1 h 51 min
Bit rate                                 : 77 b/s
Frame rate                               : 0.286 FPS
Count of elements                        : 1915
Stream size                              : 63.3 KiB (0%)
Title                                    : Português (Brasil)
Language                                 : Portuguese
Default                                  : No
Forced                                   : No
Text #31
ID                                       : 33
Format                                   : UTF-8
Codec ID                                 : S_TEXT/UTF8
Codec ID/Info                            : UTF-8 Plain Text
Duration                                 : 1 h 51 min
Bit rate                                 : 85 b/s
Frame rate                               : 0.286 FPS
Count of elements                        : 1917
Stream size                              : 69.7 KiB (0%)
Title                                    : Português (Portugal)
Language                                 : Portuguese
Default                                  : No
Forced                                   : No
Text #32
ID                                       : 34
Format                                   : UTF-8
Codec ID                                 : S_TEXT/UTF8
Codec ID/Info                            : UTF-8 Plain Text
Duration                                 : 1 h 51 min
Bit rate                                 : 83 b/s
Frame rate                               : 0.286 FPS
Count of elements                        : 1918
Stream size                              : 68.1 KiB (0%)
Title                                    : Roman? (Romania)
Language                                 : Romanian
Default                                  : No
Forced                                   : No
Text #33
ID                                       : 35
Format                                   : UTF-8
Codec ID                                 : S_TEXT/UTF8
Codec ID/Info                            : UTF-8 Plain Text
Duration                                 : 1 h 51 min
Bit rate                                 : 82 b/s
Frame rate                               : 0.286 FPS
Count of elements                        : 1915
Stream size                              : 67.8 KiB (0%)
Title                                    : Svenska (Sverige)
Language                                 : Swedish
Default                                  : No
Forced                                   : No
Text #34
ID                                       : 36
Format                                   : UTF-8
Codec ID                                 : S_TEXT/UTF8
Codec ID/Info                            : UTF-8 Plain Text
Duration                                 : 1 h 51 min
Bit rate                                 : 224 b/s
Frame rate                               : 0.287 FPS
Count of elements                        : 1926
Stream size                              : 184 KiB (0%)
Title                                    : ????? (???????)
Language                                 : Tamil
Default                                  : No
Forced                                   : No
Text #35
ID                                       : 37
Format                                   : UTF-8
Codec ID                                 : S_TEXT/UTF8
Codec ID/Info                            : UTF-8 Plain Text
Duration                                 : 1 h 51 min
Bit rate                                 : 208 b/s
Frame rate                               : 0.287 FPS
Count of elements                        : 1926
Stream size                              : 171 KiB (0%)
Title                                    : ?????? (????????)
Language                                 : Telugu
Default                                  : No
Forced                                   : No
Text #36
ID                                       : 38
Format                                   : UTF-8
Codec ID                                 : S_TEXT/UTF8
Codec ID/Info                            : UTF-8 Plain Text
Duration                                 : 1 h 51 min
Bit rate                                 : 211 b/s
Frame rate                               : 0.287 FPS
Count of elements                        : 1926
Stream size                              : 173 KiB (0%)
Title                                    : ??? (???)
Language                                 : Thai
Default                                  : No
Forced                                   : No
Text #37
ID                                       : 39
Format                                   : UTF-8
Codec ID                                 : S_TEXT/UTF8
Codec ID/Info                            : UTF-8 Plain Text
Duration                                 : 1 h 51 min
Bit rate                                 : 80 b/s
Frame rate                               : 0.287 FPS
Count of elements                        : 1924
Stream size                              : 65.7 KiB (0%)
Title                                    : Türk?e (Türkiye)
Language                                 : Turkish
Default                                  : No
Forced                                   : No
部分资源为软字幕,移动端推荐播放器:MxPlayer,nPlayer,infuse ,其他播放器请自行尝试。
部分资源为软字幕,电脑端推荐播放器:PotPlayer,完美解码,KMPLAYER,其他播放器请自行尝试。






~~~~~~~~~~~~~~~~~~~~~~~~~~~~~~~~~~~~~~~~~
[2024][欧美][喜剧][WEB-4K]瑞奇·斯坦尼克[简繁英字幕].Ricky.Stanicky.2024.2160p.AMZN.WEB-DL.DDP5.1.Atmos.H.265- 1

【文件列表】:


Ricky.Stanicky.2024.2160p.AMZN.WEB-DL.DDP5.1.Atmos.H.265-BATWEB.



【下载地址列表】:


游客
文件下载链接就在这里,在您回复评论成功后才能显示。
请勿回复无意义的灌水内容。


下拉页面到最底部回复或者【点击此处快捷回复】,回复后返回此处即可查看下载链接。
如您没注册本站会员,可以点击注册本站,注册后即可回复下载。



软字幕无法在截图上展现,HDR版本/杜比视界版本截图会出现颜色异常,请使用支持的设备播放!






[img][/img]






[img][/img]

(HDR版本/杜比视界版本,截图会出现颜色异常,请使用支持的设备播放)

小贴士:【影视自媒体解说文案请移步:夏至文案解说网 www.xiazhi.vip

上一篇:[2024][欧美][喜剧][WEB-4K]瑞奇·斯坦尼克[杜比视界版本][简繁英字幕].Ricky.Stanicky.2024.2160p.AMZN.WEB-DL.DDP5.1.Atmos.DV.H.2
下一篇:[2024][欧美][喜剧][WEB-4K]瑞奇·斯坦尼克[简繁英字幕].Ricky.Stanicky.2024.2160p.AMZN.WEB-DL.DDP5.1.Atmos.HDR.H.265-BATW
回复

使用道具 举报

您需要登录后才可以回帖 登录 | 立即注册

本版积分规则

Archiver|手机版|小众纪录片影视聚合

GMT+8, 2024-7-16 22:52 , Processed in 0.156481 second(s), 13 queries , Gzip On, Redis On.

Powered by 小众纪录片影视聚合 @2010-2023

Copyright © 2010-2024, https://www.xzjlp.com/.


免责说明:本站所有内容链接、图文介绍等均来自于互联网网友分享,本站仅支持web页面展示和文字介绍,绝不提供在线观看和存储服务,也不参与录制、上传、压片。若本站收录内容无意侵犯贵司版权,请发邮件到【a885185#163.com】联系本站,我们将在第一时间删除侵权内容。谢谢!

快速回复 返回顶部 返回列表