小众纪录片影视聚合

 找回密码
 立即注册
查看: 11|回复: 0

[蓝光电影] [2023][欧美][喜剧][WEB-4K]旺卡[HDR/杜比视界双版本][简繁英字幕].Wonka.2023.2160p.UHD.BluRay.x265.10bit.DV.TrueHD.7.1.Atmo

[复制链接]

113万

主题

113万

帖子

113万

积分

超级版主

Rank: 8Rank: 8

积分
1134020
发表于 2024-7-9 21:16:44 | 显示全部楼层 |阅读模式


[2023][欧美][喜剧][WEB-4K]旺卡[HDR/杜比视界双版本][简繁英字幕].Wonka.2023.2160p.UHD.BluRay.x265.10bit.DV.TrueHD.7.1.Atmo

完整标题:旺卡[HDR/杜比视界双版本][简繁英字幕].Wonka.2023.2160p.UHD.BluRay.x265.10bit.DV.TrueHD.7.1.Atmos-SONYHD 21.86GB
◎标  题 旺卡
◎译  名 查理和巧克力工厂前传
◎片  名 Wonka
◎年  代 2023
◎产  地 美国 / 英国 / 加拿大
◎类  别 喜剧 / 歌舞 / 奇幻 / 冒险
◎语  言 英语
◎上映日期 2023-12-08(中国大陆) / 2023-12-06(中国台湾) / 2023-12-15(美国)
◎IMDb评分 7.3/10 (64377人评价)
◎IMDb链接 https://www.imdb.com/title/tt6166392/
◎豆瓣评分 7.6/10 (74852人评价)
◎豆瓣链接 https://movie.douban.com/subject/26897888/
◎片  长 116分钟
◎导  演 保罗·金 Paul King
◎编  剧 西蒙·法纳比 Simon Farnaby
       保罗·金 Paul King
       罗尔德·达尔 Roald Dahl
◎演  员 提莫西·查拉梅 Timothée Chalamet
       奥利维娅·科尔曼 Olivia Colman
       休·格兰特 Hugh Grant
       卡拉·莱恩 Calah Lane
       科甘-迈克尔·凯 Keegan-Michael Key
       佩特逊·约瑟夫 Paterson Joseph
       马特·卢卡斯 Matt Lucas
       马修·贝恩顿 Mathew Baynton
       莎莉·霍金斯 Sally Hawkins
       罗温·艾金森 Rowan Atkinson
       汤姆·戴维斯 Tom Davis
       吉姆·卡特 Jim Carter
       娜塔莎·罗斯韦尔 Natasha Rothwell
       瑞奇·富尔切尔 Rich Fulcher
       拉卡·塔克雷尔 Rakhee Thakrar
       西蒙·法纳比 Simon Farnaby
       艾丽·怀特 Ellie White
       夏洛特·里奇 Charlotte Ritchie
       寇布勒·霍尔德布鲁克-史密斯 Kobna Holdbrook-Smith
       科林·奥布莱恩 Colin O'Brien
       特蕾西·伊芙艾策尔 Tracy Ifeachor
       芙蕾雅·帕克 Freya Parker
       贾斯汀·爱德华兹 Justin Edwards
       鲁弗斯·琼斯 Rufus Jones
       默里·麦克阿瑟 Murray McArthur
       格兰特·克鲁克斯 Grant Crookes
       阿尔弗雷多·塔瓦雷斯 Alfredo Tavares
       皮埃尔·伯格曼 Pierre Bergman
       贾格·帕特尔 Jag Patel
       斯蒂芬·菲切特 Stephane Fichet
       吉安尼·卡尔切蒂 Gianni Calchetti
       古斯塔夫·迪伊 Gustave Die
       伯蒂·卡普兰 Bertie Caplan
◎简  介
    影片聚焦经典之作《查理和巧克力工厂》的主人公威利·旺卡(提莫西·查拉梅 饰),这位年轻且天赋异禀的发明家、魔术师、巧克力制作师,是如何经历奇幻冒险,成长为观众挚爱的巧克力工厂掌门人的故事。##### MediaInfo ######
General
Unique ID                                : 65220113021981761288058310734587660477 (0x3110EFD65AAC91F993AEB84434D088BD)
Complete name                            : Wonka.2023.2160p.UHD.BluRay.x265.10bit.DV.TrueHD.7.1.Atmos-SONYHD.mkv
Duration                                 : 1 h 56 min
Overall bit rate mode                    : Variable
Overall bit rate                         : 26.9 Mb/s
Video
ID                                       : 1
Format                                   : HEVC
Format/Info                              : High Efficiency Video Coding
Format profile                           : Main [email protected]@High
HDR format                               : Dolby Vision, Version 1.0, dvhe.08.06, BL+RPU, HDR10 compatible / SMPTE ST 2086, HDR10 compatible
Codec ID                                 : V_MPEGH/ISO/HEVC
Duration                                 : 1 h 56 min
Bit rate                                 : 23.5 Mb/s
Width                                    : 3 840 pixels
Height                                   : 1 604 pixels
Display aspect ratio                     : 2.40:1
Frame rate mode                          : Constant
Frame rate                               : 23.976 (24000/1001) FPS
Color space                              : YUV
Chroma subsampling                       : 4:2:0 (Type 2)
Bit depth                                : 10 bits
Bits/(Pixel*Frame)                       : 0.159
Stream size                              : 19.1 GiB (87%)
Writing library                          : x265 3.5g2b25c9ba0+45:[Windows][MSVC 1926][64 bit] Yuuki 10bit+8bit+12bit
Encoding settings                        : rc=crf / crf=18.4600 / qcomp=0.60 / qpstep=4 / stats-write=0 / stats-read=0 / vbv-maxrate=160000 / vbv-bufsize=160000 / vbv-init=0.9 / min-vbv-fullness=50.0 / max-vbv-fullness=80.0 / crf-max=0.0 / crf-min=0.0 / no-lossless / no-cu-lossless / aq-mode=3 / aq-strength=0.70 / cbqpoffs=0 / crqpoffs=0 / ipratio=1.40 / pbratio=1.30 / psy-rd=2.00 / psy-rdoq=2.00 / deblock=-3:-3 / ref=6 / limit-refs=1 / no-limit-modes / bframes=11 / b-adapt=2 / bframe-bias=0 / b-pyramid / b-intra / weightp / weightb / min-keyint=1 / max-keyint=240 / rc-lookahead=72 / gop-lookahead=0 / scenecut=40 / hist-scenecut=0 / radl=0 / max-cu-size=64 / min-cu-size=8 / me=3 / subme=6 / merange=48 / rdoq-level=2 / rd=4 / rdpenalty=0 / dynamic-rd=0.00 / no-rd-refine / ----- / no-cutree / no-sao / no-rect / no-amp / no-open-gop / wpp / no-pmode / no-pme / no-psnr / no-ssim / nr-intra=0 / nr-inter=0 / no-constrained-intra / no-strong-intra-smoothing / max-tu-size=32 / tu-inter-depth=4 / tu-intra-depth=4 / limit-tu=0 / qg-size=32 / qpmax=69 / qpmin=0 / ----- / cpuid=1111039 / frame-threads=4 / numa-pools=+ / log-level=2 / input-csp=1 / input-res=3840x1604 / interlace=0 / level-idc=51 / high-tier=1 / uhd-bd=0 / no-allow-non-conformance / repeat-headers / aud / hrd / info / hash=0 / no-temporal-layers / lookahead-slices=0 / no-splice / no-intra-refresh / no-ssim-rd / signhide / no-tskip / max-merge=5 / temporal-mvp / no-frame-dup / no-hme / analyze-src-pics / no-sao-non-deblock / selective-sao=0 / early-skip / rskip / no-fast-intra / no-tskip-fast / no-splitrd-skip / zone-count=0 / no-strict-cbr / no-rc-grain / no-const-vbv / sar=0 / overscan=0 / videoformat=5 / range=0 / colorprim=9 / transfer=16 / colormatrix=9 / chromaloc=1 / chromaloc-top=2 / chromaloc-bottom=2 / display-window=0 / master-display=G(13250,34500)B(7500,3000)R(34000,16000)WP(15635,16450)L(10000000,1) / cll=446,106 / min-luma=0 / max-luma=1023 / log2-max-poc-lsb=8 / vui-timing-info / vui-hrd-info / slices=1 / no-opt-qp-pps / no-opt-ref-list-length-pps / no-multi-pass-opt-rps / scenecut-bias=0.05 / hist-threshold=0.03 / no-opt-cu-delta-qp / no-aq-motion / hdr10 / hdr10-opt / no-dhdr10-opt / no-idr-recovery-sei / analysis-reuse-level=0 / analysis-save-reuse-level=0 / analysis-load-reuse-level=0 / scale-factor=0 / refine-intra=0 / refine-inter=0 / refine-mv=1 / refine-ctu-distortion=0 / no-limit-sao / ctu-info=0 / no-lowpass-dct / refine-analysis-type=0 / copy-pic=1 / max-ausize-factor=1.0 / no-dynamic-refine / no-single-sei / no-hevc-aq / no-svt / no-field / qp-adaptation-range=1.00 / scenecut-aware-qp=0conformance-window-offsets / right=0 / bottom=0 / decoder-max-rate=0 / no-vbv-live-multi-pass
Default                                  : Yes
Forced                                   : No
Color range                              : Limited
Color primaries                          : BT.2020
Transfer characteristics                 : PQ
Matrix coefficients                      : BT.2020 non-constant
Mastering display color primaries        : Display P3
Mastering display luminance              : min: 0.0001 cd/m2, max: 1000 cd/m2
Maximum Content Light Level              : 446 cd/m2
Maximum Frame-Average Light Level        : 106 cd/m2
Audio
ID                                       : 2
ID in the original source medium         : 4352 (0x1100)
Format                                   : MLP FBA 16-ch
Format/Info                              : Meridian Lossless Packing FBA with 16-channel presentation
Commercial name                          : Dolby TrueHD with Dolby Atmos
Codec ID                                 : A_TRUEHD
Duration                                 : 1 h 56 min
Bit rate mode                            : Variable
Bit rate                                 : 3 196 kb/s
Maximum bit rate                         : 5 526 kb/s
Channel(s)                               : 8 channels
Channel layout                           : L R C LFE Ls Rs Lb Rb
Sampling rate                            : 48.0 kHz
Frame rate                               : 1 200.000 FPS (40 SPF)
Compression mode                         : Lossless
Stream size                              : 2.60 GiB (12%)
Title                                    : English
Language                                 : English
Default                                  : Yes
Forced                                   : No
Original source medium                   : Blu-ray
Number of dynamic objects                : 11
Bed channel count                        : 1 channel
Bed channel configuration                : LFE
Text #1
ID                                       : 3
ID in the original source medium         : 4773 (0x12A5)
Format                                   : PGS
Muxing mode                              : zlib
Codec ID                                 : S_HDMV/PGS
Codec ID/Info                            : Picture based subtitle format used on BDs/HD-DVDs
Duration                                 : 1 h 55 min
Bit rate                                 : 63.7 kb/s
Frame rate                               : 0.543 FPS
Count of elements                        : 3779
Stream size                              : 52.8 MiB (0%)
Title                                    : chs&eng
Language                                 : Chinese
Default                                  : Yes
Forced                                   : No
Original source medium                   : Blu-ray
Text #2
ID                                       : 4
ID in the original source medium         : 4774 (0x12A6)
Format                                   : PGS
Muxing mode                              : zlib
Codec ID                                 : S_HDMV/PGS
Codec ID/Info                            : Picture based subtitle format used on BDs/HD-DVDs
Duration                                 : 1 h 55 min
Bit rate                                 : 63.9 kb/s
Frame rate                               : 0.543 FPS
Count of elements                        : 3779
Stream size                              : 53.0 MiB (0%)
Title                                    : cht&eng
Language                                 : Chinese
Default                                  : No
Forced                                   : No
Original source medium                   : Blu-ray
Text #3
ID                                       : 5
ID in the original source medium         : 4775 (0x12A7)
Format                                   : PGS
Muxing mode                              : zlib
Codec ID                                 : S_HDMV/PGS
Codec ID/Info                            : Picture based subtitle format used on BDs/HD-DVDs
Duration                                 : 1 h 55 min
Bit rate                                 : 35.4 kb/s
Frame rate                               : 0.543 FPS
Count of elements                        : 3779
Stream size                              : 29.3 MiB (0%)
Title                                    : chs
Language                                 : Chinese
Default                                  : No
Forced                                   : No
Original source medium                   : Blu-ray
Text #4
ID                                       : 6
ID in the original source medium         : 4776 (0x12A8)
Format                                   : PGS
Muxing mode                              : zlib
Codec ID                                 : S_HDMV/PGS
Codec ID/Info                            : Picture based subtitle format used on BDs/HD-DVDs
Duration                                 : 1 h 55 min
Bit rate                                 : 35.6 kb/s
Frame rate                               : 0.543 FPS
Count of elements                        : 3779
Stream size                              : 29.5 MiB (0%)
Title                                    : cht
Language                                 : Chinese
Default                                  : No
Forced                                   : No
Original source medium                   : Blu-ray
Text #5
ID                                       : 7
ID in the original source medium         : 4768 (0x12A0)
Format                                   : PGS
Muxing mode                              : zlib
Codec ID                                 : S_HDMV/PGS
Codec ID/Info                            : Picture based subtitle format used on BDs/HD-DVDs
Duration                                 : 1 h 55 min
Bit rate                                 : 55.4 kb/s
Frame rate                               : 0.745 FPS
Count of elements                        : 5176
Stream size                              : 45.9 MiB (0%)
Title                                    : eng
Language                                 : English
Default                                  : No
Forced                                   : No
Original source medium                   : Blu-ray
Menu
00:00:00.000                             : en:Chapter 01
00:06:58.000                             : en:Chapter 02
00:16:54.471                             : en:Chapter 03
00:23:57.227                             : en:Chapter 04
00:33:17.578                             : en:Chapter 05
00:41:15.514                             : en:Chapter 06
00:47:13.831                             : en:Chapter 07
00:53:37.088                             : en:Chapter 08
00:59:02.330                             : en:Chapter 09
01:07:27.418                             : en:Chapter 10
01:13:15.474                             : en:Chapter 11
01:18:04.971                             : en:Chapter 12
01:26:43.990                             : en:Chapter 13
01:36:28.199                             : en:Chapter 14
01:46:20.165                             : en:Chapter 15
01:50:28.288                             : en:Chapter 16
部分资源为软字幕,移动端推荐播放器:MxPlayer,nPlayer,infuse ,其他播放器请自行尝试。
部分资源为软字幕,电脑端推荐播放器:PotPlayer,完美解码,KMPLAYER,其他播放器请自行尝试。






~~~~~~~~~~~~~~~~~~~~~~~~~~~~~~~~~~~~~~~~~
[2023][欧美][喜剧][WEB-4K]旺卡[HDR/杜比视界双版本][简繁英字幕].Wonka.2023.2160p.UHD.BluRay.x265.10bit.DV.TrueHD.7.1.Atmo

【文件列表】:


Wonka.2023.2160p.UHD.BluRay.x265.10bit.DV.TrueHD.7.1.Atmos-SONYHD.



【下载地址列表】:


游客
文件下载链接就在这里,在您回复评论成功后才能显示。
请勿回复无意义的灌水内容。


下拉页面到最底部回复或者【点击此处快捷回复】,回复后返回此处即可查看下载链接。
如您没注册本站会员,可以点击注册本站,注册后即可回复下载。



软字幕无法在截图上展现,HDR版本/杜比视界版本截图会出现颜色异常,请使用支持的设备播放!






[img][/img]






[img][/img]

(HDR版本/杜比视界版本,截图会出现颜色异常,请使用支持的设备播放)

小贴士:【影视自媒体解说文案请移步:夏至文案解说网 www.xiazhi.vip

上一篇:[2008][欧美][剧情][BD-1080P]X档案:我要相信[中文字幕].The.X.Files.I.Want.to.Believe.2008.Directors.Cut.Bluray.1080p.AAC
下一篇:[2023][其它][惊悚][WEB-1080P]陪月[国语配音/中文字幕].Confinement.2023.1080p.WEB-DL.H265.DDP5.1- 1.17GB
回复

使用道具 举报

您需要登录后才可以回帖 登录 | 立即注册

本版积分规则

Archiver|手机版|小众纪录片影视聚合

GMT+8, 2024-7-20 18:02 , Processed in 0.076696 second(s), 13 queries , Gzip On, Redis On.

Powered by 小众纪录片影视聚合 @2010-2023

Copyright © 2010-2024, https://www.xzjlp.com/.


免责说明:本站所有内容链接、图文介绍等均来自于互联网网友分享,本站仅支持web页面展示和文字介绍,绝不提供在线观看和存储服务,也不参与录制、上传、压片。若本站收录内容无意侵犯贵司版权,请发邮件到【a885185#163.com】联系本站,我们将在第一时间删除侵权内容。谢谢!

快速回复 返回顶部 返回列表