小众纪录片影视聚合

 找回密码
 立即注册
查看: 3|回复: 0

[蓝光电影] [2023][其它][惊悚][WEB-4K]陪月[国语配音/中文字幕].Confinement.2023.2160p.WEB-DL.H265.HDR.DDP5.1- 6.62GB

[复制链接]

116万

主题

116万

帖子

116万

积分

超级版主

Rank: 8Rank: 8

积分
1167997
发表于 2024-7-9 21:16:57 | 显示全部楼层 |阅读模式


[2023][其它][惊悚][WEB-4K]陪月[国语配音/中文字幕].Confinement.2023.2160p.WEB-DL.H265.HDR.DDP5.1- 6.62GB

完整标题:陪月[国语配音/中文字幕].Confinement.2023.2160p.WEB-DL.H265.HDR.DDP5.1-DreamHD 6.62GB
◎标  题 陪月
◎译  名 CONFINEMENT
◎年  代 2023
◎产  地 新加坡 / 马来西亚
◎类  别 惊悚
◎上映日期 2023-10-19(新加坡)
◎IMDb链接 https://www.imdb.com/title//
◎豆瓣链接 https://movie.douban.com/subject/36247300/
◎导  演 唐永健 Kelvin Tong
◎演  员 林慧玲 Rebecca Lim
       许美珍 Cynthia Koh
◎简  介
    《陪月》是由长信传媒、Clover Films、爱奇艺出品,映嘉娱乐、Boku Films联合出品的新加坡惊悚电影,该片由唐永健执导,林慧玲、许美珍领衔主演。
点击图片可查看大图
软字幕无法在截图上展现,HDR版本/杜比视界版本截图会出现颜色异常,请使用支持的设备播放!
##### MediaInfo ######
General
Unique ID                                : 253474964817658424252562230434923588074 (0xBEB180A32697D58EE10BC0C0C4F8A9EA)
Complete name                            : Confinement.2023.2160p.WEB-DL.H265.HDR.DDP5.1-CHDWEB.mkv
Duration                                 : 1 h 35 min
Overall bit rate                         : 9 917 kb/s
Video
ID                                       : 1
Format                                   : HEVC
Format/Info                              : High Efficiency Video Coding
Format profile                           : Main 10@L5@Main
HDR format                               : SMPTE ST 2086, HDR10 compatible
Codec ID                                 : V_MPEGH/ISO/HEVC
Duration                                 : 1 h 35 min
Bit rate                                 : 9 469 kb/s
Width                                    : 3 840 pixels
Height                                   : 1 920 pixels
Display aspect ratio                     : 2.000
Frame rate mode                          : Constant
Frame rate                               : 24.000 FPS
Color space                              : YUV
Chroma subsampling                       : 4:2:0
Bit depth                                : 10 bits
Bits/(Pixel*Frame)                       : 0.054
Stream size                              : 6.32 GiB (95%)
Default                                  : Yes
Forced                                   : No
Color range                              : Limited
Color primaries                          : BT.2020
Transfer characteristics                 : PQ
Matrix coefficients                      : BT.2020 non-constant
Mastering display color primaries        : R: x=0.708000 y=0.292000, G: x=0.170000 y=0.797000, B: x=0.130000 y=0.046000, White point: x=0.312700 y=0.329000
Mastering display luminance              : min: 0.0001 cd/m2, max: 1000 cd/m2
Maximum Content Light Level              : 681 cd/m2
Maximum Frame-Average Light Level        : 99 cd/m2
Audio #1
ID                                       : 2
Format                                   : E-AC-3
Format/Info                              : Enhanced AC-3
Commercial name                          : Dolby Digital Plus
Codec ID                                 : A_EAC3
Duration                                 : 1 h 35 min
Bit rate mode                            : Constant
Bit rate                                 : 256 kb/s
Channel(s)                               : 6 channels
Channel layout                           : L R C LFE Ls Rs
Sampling rate                            : 48.0 kHz
Frame rate                               : 31.250 FPS (1536 SPF)
Compression mode                         : Lossy
Stream size                              : 175 MiB (3%)
Title                                    : Mandarin [DDP5.1]
Language                                 : Chinese
Service kind                             : Complete Main
Default                                  : Yes
Forced                                   : No
Audio #2
ID                                       : 3
Format                                   : AAC LC
Format/Info                              : Advanced Audio Codec Low Complexity
Codec ID                                 : A_AAC-2
Duration                                 : 1 h 35 min
Bit rate                                 : 192 kb/s
Channel(s)                               : 2 channels
Channel layout                           : L R
Sampling rate                            : 44.1 kHz
Frame rate                               : 43.066 FPS (1024 SPF)
Compression mode                         : Lossy
Stream size                              : 130 MiB (2%)
Title                                    : Mandarin [AAC2.0]
Language                                 : Chinese
Default                                  : No
Forced                                   : No
部分资源为软字幕,移动端推荐播放器:MxPlayer,nPlayer,infuse ,其他播放器请自行尝试。
部分资源为软字幕,电脑端推荐播放器:PotPlayer,完美解码,KMPLAYER,其他播放器请自行尝试。






~~~~~~~~~~~~~~~~~~~~~~~~~~~~~~~~~~~~~~~~~
[2023][其它][惊悚][WEB-4K]陪月[国语配音/中文字幕].Confinement.2023.2160p.WEB-DL.H265.HDR.DDP5.1- 6.62GB

【文件列表】:


Confinement.2023.2160p.WEB-DL.H265.HDR.DDP5.1-DreamHD.



【下载地址列表】:


游客
文件下载链接就在这里,在您回复评论成功后才能显示。
请勿回复无意义的灌水内容。


下拉页面到最底部回复或者【点击此处快捷回复】,回复后返回此处即可查看下载链接。
如您没注册本站会员,可以点击注册本站,注册后即可回复下载。



软字幕无法在截图上展现,HDR版本/杜比视界版本截图会出现颜色异常,请使用支持的设备播放!






[img][/img]






[img][/img]

(HDR版本/杜比视界版本,截图会出现颜色异常,请使用支持的设备播放)

小贴士:【影视自媒体解说文案请移步:夏至文案解说网 www.xiazhi.vip

上一篇:[2023][其它][惊悚][WEB-4K]陪月[60帧率版本][国语配音/中文字幕].Confinement.2023.2160p.WEB-DL.H265.HDR.60fps.DDP5.1-DreamH
下一篇:[2023][欧美][爱情][WEB-1080P]可怜的东西[中文字幕].Poor.Things.2023.1080p.DSNP.WEB-DL.DDP.5.1.Atmos.H.264- 7.79G
回复

使用道具 举报

您需要登录后才可以回帖 登录 | 立即注册

本版积分规则

Archiver|手机版|小众纪录片影视聚合

GMT+8, 2024-7-24 23:14 , Processed in 0.066021 second(s), 13 queries , Gzip On, Redis On.

Powered by 小众纪录片影视聚合 @2010-2023

Copyright © 2010-2024, https://www.xzjlp.com/.


免责说明:本站所有内容链接、图文介绍等均来自于互联网网友分享,本站仅支持web页面展示和文字介绍,绝不提供在线观看和存储服务,也不参与录制、上传、压片。若本站收录内容无意侵犯贵司版权,请发邮件到【a885185#163.com】联系本站,我们将在第一时间删除侵权内容。谢谢!

快速回复 返回顶部 返回列表