小众纪录片影视聚合

 找回密码
 立即注册
查看: 9|回复: 0

[蓝光电影] [2023][欧美][爱情][WEB-4K]可怜的东西[杜比视界版本][中文字幕].Poor.Things.2023.2160p.DSNP.WEB-DL.DDP.5.1.Atmos.DV.H.265-Dr

[复制链接]

116万

主题

116万

帖子

116万

积分

超级版主

Rank: 8Rank: 8

积分
1167997
发表于 2024-7-9 21:17:05 | 显示全部楼层 |阅读模式


[2023][欧美][爱情][WEB-4K]可怜的东西[杜比视界版本][中文字幕].Poor.Things.2023.2160p.DSNP.WEB-DL.DDP.5.1.Atmos.DV.H.265-Dr

完整标题:可怜的东西[杜比视界版本][中文字幕].Poor.Things.2023.2160p.DSNP.WEB-DL.DDP.5.1.Atmos.DV.H.265-DreamHD 17.11GB
◎标  题 可怜的东西
◎译  名 小可怜
◎片  名 Poor Things
◎年  代 2023
◎产  地 美国 / 爱尔兰 / 英国
◎类  别 爱情 / 科幻
◎语  言 英语
◎上映日期 2023-09-01(威尼斯电影节) / 2023-12-08(美国)
◎IMDb评分 8.5/10 (17245人评价)
◎IMDb链接 https://www.imdb.com/title/tt14230458/
◎豆瓣评分 8.1/10 (3143人评价)
◎豆瓣链接 https://movie.douban.com/subject/35350109/
◎片  长 141分钟
◎导  演 欧格斯·兰斯莫斯 Yorgos Lanthimos
◎编  剧 托尼·麦克纳马拉 Tony McNamara
       阿拉斯代尔·格雷 Alasdair Gray
◎演  员 艾玛·斯通 Emma Stone
       威廉·达福 Willem Dafoe
       马克·鲁弗洛 Mark Ruffalo
       拉米·尤素夫 Ramy Youssef
       克里斯托弗·阿波特 Christopher Abbott
       杰洛德·卡尔迈克 Jerrod Carmichael
       玛格丽特·库里 Margaret Qualley
       凯瑟琳·亨特 Kathryn Hunter
       苏西·本巴 Suzy Bemba
       汉娜·许古拉 Hanna Schygulla
       薇琪·佩珀代因 Vicki Pepperdine
       韦恩·布雷特 Wayne Brett
       杰克·巴顿 Jack Barton
       查理·希斯科克 Charlie Hiscock
       阿提拉·多拜 Attila Dobai
       艾玛·欣德尔 Emma Hindle
       安德斯·奥洛夫·格伦德伯格 Anders Olof Grundberg
       凯奇凯梅西·阿提拉 Kecskeméthy Attila
       朱西马尔·巴尔博萨 Jucimar Barbosa
       卡米尼奥 Carminho
       达米安·勃纳尔 Damien Bonnard
       杰瑞米·惠勒 Jeremy Wheeler
       薇薇安·索恩 Vivienne Soan
       罗德里克·希尔 Roderick Hill
       安德鲁·赫夫勒 Andrew Hefler
       欧格斯·斯特凡纳科斯 Yorgos Stefanakos
       加博·帕泰 Gábor Patay
        洛朗·博雷尔 Laurent Borel
       多丽娜·科瓦奇 Dorina Kovacs
       鲍里斯·吉洛 Boris Gillot
       迈尔斯·约维安 Miles Jovian
       帕特里克·代·瓦莱特 Patrick de Valette
       亚诺什·格莱布 János Geréb
       马苏德·达希尔 Mascuud Dahir
       塔马斯·萨博·西珀斯 Tamás Szabó Sipos
       多诺万·福西尔 Donovan Fouassier
       诺亚·布雷顿 Noah Breton
       欧文·古德 Owen Good
       亚历山德拉·托特 Alexandra Tóth
       萨姆·J·夏沃 Sam J. Schiavo
       瑟林纳·施莱谢尔 Celina Schleicher
       希沙姆·奥马尔 Hisham Omer
       格戈·博尔巴斯 Gergo Borbas
       戴维·布罗姆利 David Bromley
       约翰·洛克 John Locke
       布鲁纳·阿斯多里安 Bruna Asdorian
       杰尔斯金·芬德里克斯 Jerskin Fendrix
       兹恩·约书亚·泊松 Zen Joshua Poisson
       凯特·汉福德 Kate Handford
       古斯塔沃·戈麦斯 Gustavo Gomes
       安杰拉·保拉·史丹德尔 Angela Paula Stander
◎简  介
    影片基于苏格兰作家阿拉斯代尔·格雷所著同名小说,融合现实主义、奇幻、科幻元素,将弗兰肯斯坦的故事重塑,设定在维多利亚时代晚期,逃避丈夫虐待却不幸身亡的女子贝拉(艾玛·斯通 Emma Stone 饰),在被科学家成功复活后,心智停留在孩童阶段,却也对未知世界充满渴望;她与放荡律师私奔踏上挖掘自我的冒险,试图摆脱时代对女性偏见,追求平等与性解放。
点击图片可查看大图
软字幕无法在截图上展现,HDR版本/杜比视界版本截图会出现颜色异常,请使用支持的设备播放!
##### MediaInfo ######
General
Unique ID                                : 235020966095392954527746685425343009863 (0xB0CF6440F5777E30D34FB68387A41447)
Complete name                            : Poor.Things.2023.2160p.DSNP.WEB-DL.DDP.5.1.Atmos.DV.H.265-DreamHD.mkv
Duration                                 : 2 h 21 min
Overall bit rate                         : 17.3 Mb/s
Video
ID                                       : 1
Format                                   : HEVC
Format/Info                              : High Efficiency Video Coding
Format profile                           : Main 10@L5@High
HDR format                               : Dolby Vision, Version 1.0, dvhe.05.06, BL+RPU
Codec ID                                 : V_MPEGH/ISO/HEVC
Duration                                 : 2 h 21 min
Bit rate                                 : 16.5 Mb/s
Width                                    : 3 840 pixels
Height                                   : 2 160 pixels
Display aspect ratio                     : 16:9
Frame rate mode                          : Constant
Frame rate                               : 24.000 FPS
Color space                              : YUV
Chroma subsampling                       : 4:2:0
Bit depth                                : 10 bits
Bits/(Pixel*Frame)                       : 0.083
Stream size                              : 16.3 GiB (96%)
Language                                 : English
Default                                  : Yes
Forced                                   : No
Color range                              : Full
Audio
ID                                       : 2
Format                                   : E-AC-3 JOC
Format/Info                              : Enhanced AC-3 with Joint Object Coding
Commercial name                          : Dolby Digital Plus with Dolby Atmos
Codec ID                                 : A_EAC3
Duration                                 : 2 h 21 min
Bit rate mode                            : Constant
Bit rate                                 : 768 kb/s
Channel(s)                               : 6 channels
Channel layout                           : L R C LFE Ls Rs
Sampling rate                            : 48.0 kHz
Frame rate                               : 31.250 FPS (1536 SPF)
Compression mode                         : Lossy
Stream size                              : 777 MiB (4%)
Language                                 : English
Service kind                             : Complete Main
Default                                  : Yes
Forced                                   : No
Complexity index                         : 16
Number of dynamic objects                : 15
Bed channel count                        : 1 channel
Bed channel configuration                : LFE
Text #1
ID                                       : 3
Format                                   : UTF-8
Codec ID                                 : S_TEXT/UTF8
Codec ID/Info                            : UTF-8 Plain Text
Duration                                 : 2 h 20 min
Bit rate                                 : 53 b/s
Frame rate                               : 0.258 FPS
Count of elements                        : 2175
Stream size                              : 55.0 KiB (0%)
Title                                    : SDH
Language                                 : English
Default                                  : No
Forced                                   : No
Text #2
ID                                       : 4
Format                                   : UTF-8
Codec ID                                 : S_TEXT/UTF8
Codec ID/Info                            : UTF-8 Plain Text
Duration                                 : 2 h 19 min
Bit rate                                 : 35 b/s
Frame rate                               : 0.197 FPS
Count of elements                        : 1652
Stream size                              : 36.0 KiB (0%)
Title                                    : Traditional
Language                                 : Chinese
Default                                  : No
Forced                                   : No
Text #3
ID                                       : 5
Format                                   : UTF-8
Codec ID                                 : S_TEXT/UTF8
Codec ID/Info                            : UTF-8 Plain Text
Duration                                 : 2 h 19 min
Bit rate                                 : 41 b/s
Frame rate                               : 0.195 FPS
Count of elements                        : 1637
Stream size                              : 42.3 KiB (0%)
Language                                 : Czech
Default                                  : No
Forced                                   : No
Text #4
ID                                       : 6
Format                                   : UTF-8
Codec ID                                 : S_TEXT/UTF8
Codec ID/Info                            : UTF-8 Plain Text
Duration                                 : 2 h 16 min
Bit rate                                 : 47 b/s
Frame rate                               : 0.145 FPS
Count of elements                        : 1191
Stream size                              : 47.2 KiB (0%)
Language                                 : Danish
Default                                  : No
Forced                                   : No
Text #5
ID                                       : 7
Format                                   : UTF-8
Codec ID                                 : S_TEXT/UTF8
Codec ID/Info                            : UTF-8 Plain Text
Duration                                 : 2 h 16 min
Bit rate                                 : 42 b/s
Frame rate                               : 0.196 FPS
Count of elements                        : 1606
Stream size                              : 42.8 KiB (0%)
Language                                 : German
Default                                  : No
Forced                                   : No
Text #6
ID                                       : 8
Format                                   : UTF-8
Codec ID                                 : S_TEXT/UTF8
Codec ID/Info                            : UTF-8 Plain Text
Duration                                 : 2 h 10 min
Bit rate                                 : 86 b/s
Frame rate                               : 0.209 FPS
Count of elements                        : 1639
Stream size                              : 82.7 KiB (0%)
Language                                 : Greek
Default                                  : No
Forced                                   : No
Text #7
ID                                       : 9
Format                                   : UTF-8
Codec ID                                 : S_TEXT/UTF8
Codec ID/Info                            : UTF-8 Plain Text
Duration                                 : 2 h 19 min
Bit rate                                 : 44 b/s
Frame rate                               : 0.196 FPS
Count of elements                        : 1641
Stream size                              : 45.6 KiB (0%)
Title                                    : Latin America
Language                                 : Spanish
Default                                  : No
Forced                                   : No
Text #8
ID                                       : 10
Format                                   : UTF-8
Codec ID                                 : S_TEXT/UTF8
Codec ID/Info                            : UTF-8 Plain Text
Duration                                 : 2 h 19 min
Bit rate                                 : 43 b/s
Frame rate                               : 0.194 FPS
Count of elements                        : 1624
Stream size                              : 44.8 KiB (0%)
Language                                 : Spanish
Default                                  : No
Forced                                   : No
Text #9
ID                                       : 11
Format                                   : UTF-8
Codec ID                                 : S_TEXT/UTF8
Codec ID/Info                            : UTF-8 Plain Text
Duration                                 : 2 h 16 min
Bit rate                                 : 47 b/s
Frame rate                               : 0.198 FPS
Count of elements                        : 1625
Stream size                              : 47.6 KiB (0%)
Language                                 : Finnish
Default                                  : No
Forced                                   : No
Text #10
ID                                       : 12
Format                                   : UTF-8
Codec ID                                 : S_TEXT/UTF8
Codec ID/Info                            : UTF-8 Plain Text
Duration                                 : 2 h 19 min
Bit rate                                 : 44 b/s
Frame rate                               : 0.167 FPS
Count of elements                        : 1399
Stream size                              : 45.2 KiB (0%)
Language                                 : French
Default                                  : No
Forced                                   : No
Text #11
ID                                       : 13
Format                                   : UTF-8
Codec ID                                 : S_TEXT/UTF8
Codec ID/Info                            : UTF-8 Plain Text
Duration                                 : 2 h 19 min
Bit rate                                 : 42 b/s
Frame rate                               : 0.195 FPS
Count of elements                        : 1634
Stream size                              : 43.6 KiB (0%)
Language                                 : Hungarian
Default                                  : No
Forced                                   : No
Text #12
ID                                       : 14
Format                                   : UTF-8
Codec ID                                 : S_TEXT/UTF8
Codec ID/Info                            : UTF-8 Plain Text
Duration                                 : 2 h 16 min
Bit rate                                 : 47 b/s
Frame rate                               : 0.198 FPS
Count of elements                        : 1628
Stream size                              : 47.2 KiB (0%)
Language                                 : Icelandic
Default                                  : No
Forced                                   : No
Text #13
ID                                       : 15
Format                                   : UTF-8
Codec ID                                 : S_TEXT/UTF8
Codec ID/Info                            : UTF-8 Plain Text
Duration                                 : 2 h 19 min
Bit rate                                 : 43 b/s
Frame rate                               : 0.196 FPS
Count of elements                        : 1638
Stream size                              : 44.1 KiB (0%)
Language                                 : Italian
Default                                  : No
Forced                                   : No
Text #14
ID                                       : 16
Format                                   : UTF-8
Codec ID                                 : S_TEXT/UTF8
Codec ID/Info                            : UTF-8 Plain Text
Duration                                 : 2 h 16 min
Bit rate                                 : 42 b/s
Frame rate                               : 0.184 FPS
Count of elements                        : 1511
Stream size                              : 42.8 KiB (0%)
Language                                 : Japanese
Default                                  : No
Forced                                   : No
Text #15
ID                                       : 17
Format                                   : UTF-8
Codec ID                                 : S_TEXT/UTF8
Codec ID/Info                            : UTF-8 Plain Text
Duration                                 : 2 h 19 min
Bit rate                                 : 49 b/s
Frame rate                               : 0.196 FPS
Count of elements                        : 1643
Stream size                              : 50.2 KiB (0%)
Language                                 : Korean
Default                                  : No
Forced                                   : No
Text #16
ID                                       : 18
Format                                   : UTF-8
Codec ID                                 : S_TEXT/UTF8
Codec ID/Info                            : UTF-8 Plain Text
Duration                                 : 2 h 16 min
Bit rate                                 : 43 b/s
Frame rate                               : 0.162 FPS
Count of elements                        : 1329
Stream size                              : 43.5 KiB (0%)
Language                                 : Dutch
Default                                  : No
Forced                                   : No
Text #17
ID                                       : 19
Format                                   : UTF-8
Codec ID                                 : S_TEXT/UTF8
Codec ID/Info                            : UTF-8 Plain Text
Duration                                 : 2 h 16 min
Bit rate                                 : 43 b/s
Frame rate                               : 0.199 FPS
Count of elements                        : 1637
Stream size                              : 44.1 KiB (0%)
Language                                 : Norwegian
Default                                  : No
Forced                                   : No
Text #18
ID                                       : 20
Format                                   : UTF-8
Codec ID                                 : S_TEXT/UTF8
Codec ID/Info                            : UTF-8 Plain Text
Duration                                 : 2 h 19 min
Bit rate                                 : 39 b/s
Frame rate                               : 0.194 FPS
Count of elements                        : 1622
Stream size                              : 40.5 KiB (0%)
Language                                 : Polish
Default                                  : No
Forced                                   : No
Text #19
ID                                       : 21
Format                                   : UTF-8
Codec ID                                 : S_TEXT/UTF8
Codec ID/Info                            : UTF-8 Plain Text
Duration                                 : 2 h 19 min
Bit rate                                 : 40 b/s
Frame rate                               : 0.195 FPS
Count of elements                        : 1638
Stream size                              : 41.3 KiB (0%)
Title                                    : Brazil
Language                                 : Portuguese
Default                                  : No
Forced                                   : No
Text #20
ID                                       : 22
Format                                   : UTF-8
Codec ID                                 : S_TEXT/UTF8
Codec ID/Info                            : UTF-8 Plain Text
Duration                                 : 2 h 19 min
Bit rate                                 : 43 b/s
Frame rate                               : 0.194 FPS
Count of elements                        : 1625
Stream size                              : 44.6 KiB (0%)
Language                                 : Portuguese
Default                                  : No
Forced                                   : No
Text #21
ID                                       : 23
Format                                   : UTF-8
Codec ID                                 : S_TEXT/UTF8
Codec ID/Info                            : UTF-8 Plain Text
Duration                                 : 2 h 19 min
Bit rate                                 : 46 b/s
Frame rate                               : 0.186 FPS
Count of elements                        : 1559
Stream size                              : 47.3 KiB (0%)
Language                                 : Romanian
Default                                  : No
Forced                                   : No
Text #22
ID                                       : 24
Format                                   : UTF-8
Codec ID                                 : S_TEXT/UTF8
Codec ID/Info                            : UTF-8 Plain Text
Duration                                 : 2 h 19 min
Bit rate                                 : 40 b/s
Frame rate                               : 0.196 FPS
Count of elements                        : 1641
Stream size                              : 41.7 KiB (0%)
Language                                 : Slovak
Default                                  : No
Forced                                   : No
Text #23
ID                                       : 25
Format                                   : UTF-8
Codec ID                                 : S_TEXT/UTF8
Codec ID/Info                            : UTF-8 Plain Text
Duration                                 : 2 h 16 min
Bit rate                                 : 43 b/s
Frame rate                               : 0.140 FPS
Count of elements                        : 1153
Stream size                              : 43.8 KiB (0%)
Language                                 : Swedish
Default                                  : No
Forced                                   : No
Text #24
ID                                       : 26
Format                                   : UTF-8
Codec ID                                 : S_TEXT/UTF8
Codec ID/Info                            : UTF-8 Plain Text
Duration                                 : 2 h 19 min
Bit rate                                 : 44 b/s
Frame rate                               : 0.190 FPS
Count of elements                        : 1596
Stream size                              : 45.1 KiB (0%)
Language                                 : Turkish
Default                                  : No
Forced                                   : No
Text #25
ID                                       : 27
Format                                   : UTF-8
Codec ID                                 : S_TEXT/UTF8
Codec ID/Info                            : UTF-8 Plain Text
Duration                                 : 2 h 19 min
Bit rate                                 : 35 b/s
Frame rate                               : 0.197 FPS
Count of elements                        : 1652
Stream size                              : 36.0 KiB (0%)
Title                                    : Hong Kong
Language                                 : Chinese
Default                                  : No
Forced                                   : No
Menu
00:15:36.375                             : en:Scene 1
00:25:36.250                             : en:Scene 2
00:41:22.208                             : en:Scene 3
00:51:21.708                             : en:Scene 4
01:04:43.500                             : en:Scene 5
01:15:42.667                             : en:Scene 6
01:43:27.125                             : en:Scene 7
01:58:08.208                             : en:Scene 8
02:12:01.250                             : en:Scene 9
02:16:05.292                             : en:Credits
部分资源为软字幕,移动端推荐播放器:MxPlayer,nPlayer,infuse ,其他播放器请自行尝试。
部分资源为软字幕,电脑端推荐播放器:PotPlayer,完美解码,KMPLAYER,其他播放器请自行尝试。






~~~~~~~~~~~~~~~~~~~~~~~~~~~~~~~~~~~~~~~~~
[2023][欧美][爱情][WEB-4K]可怜的东西[杜比视界版本][中文字幕].Poor.Things.2023.2160p.DSNP.WEB-DL.DDP.5.1.Atmos.DV.H.265-Dr

【文件列表】:


Poor.Things.2023.2160p.DSNP.WEB-DL.DDP.5.1.Atmos.DV.H.265-DreamHD.



【下载地址列表】:


游客
文件下载链接就在这里,在您回复评论成功后才能显示。
请勿回复无意义的灌水内容。


下拉页面到最底部回复或者【点击此处快捷回复】,回复后返回此处即可查看下载链接。
如您没注册本站会员,可以点击注册本站,注册后即可回复下载。



软字幕无法在截图上展现,HDR版本/杜比视界版本截图会出现颜色异常,请使用支持的设备播放!






[img][/img]






[img][/img]

(HDR版本/杜比视界版本,截图会出现颜色异常,请使用支持的设备播放)

小贴士:【影视自媒体解说文案请移步:夏至文案解说网 www.xiazhi.vip

上一篇:[2023][欧美][爱情][WEB-1080P]可怜的东西[中文字幕].Poor.Things.2023.1080p.DSNP.WEB-DL.DDP.5.1.Atmos.H.264- 7.79G
下一篇:[2023][欧美][爱情][WEB-4K]可怜的东西[中文字幕].Poor.Things.2023.2160p.DSNP.WEB-DL.DDP.5.1.Atmos.HDR10.H.265-
回复

使用道具 举报

您需要登录后才可以回帖 登录 | 立即注册

本版积分规则

Archiver|手机版|小众纪录片影视聚合

GMT+8, 2024-7-25 02:20 , Processed in 0.098469 second(s), 13 queries , Gzip On, Redis On.

Powered by 小众纪录片影视聚合 @2010-2023

Copyright © 2010-2024, https://www.xzjlp.com/.


免责说明:本站所有内容链接、图文介绍等均来自于互联网网友分享,本站仅支持web页面展示和文字介绍,绝不提供在线观看和存储服务,也不参与录制、上传、压片。若本站收录内容无意侵犯贵司版权,请发邮件到【a885185#163.com】联系本站,我们将在第一时间删除侵权内容。谢谢!

快速回复 返回顶部 返回列表