小众纪录片影视聚合

 找回密码
 立即注册
查看: 3|回复: 0

[蓝光电影] [2013][其它][剧情][BD-1080P]菲洛梅娜[中文字幕].Philomena.2013.BluRay.1080p.DTS-HD.MA.5.1.x264- 13.16GB

[复制链接]

113万

主题

113万

帖子

113万

积分

超级版主

Rank: 8Rank: 8

积分
1134693
发表于 2024-7-9 21:18:54 | 显示全部楼层 |阅读模式


[2013][其它][剧情][BD-1080P]菲洛梅娜[中文字幕].Philomena.2013.BluRay.1080p.DTS-HD.MA.5.1.x264- 13.16GB

完整标题:菲洛梅娜[中文字幕].Philomena.2013.BluRay.1080p.DTS-HD.MA.5.1.x264-DreamHD 13.16GB
◎标  题 菲洛梅娜
◎译  名 千里伴我寻(港) / 迟来的守护者(台) / 万里寻子 / 菲洛米娜 / The Lost Child of Philomena Lee
◎片  名 Philomena
◎年  代 2013
◎产  地 英国 / 美国 / 法国
◎类  别 剧情 / 同性 / 家庭 / 传记
◎语  言 英语
◎上映日期 2013-08-31(威尼斯电影节) / 2013-11-01(英国)
◎IMDb评分 7.6/10 (103097人评价)
◎IMDb链接 https://www.imdb.com/title/tt2431286/
◎豆瓣评分 8.4/10 (27446人评价)
◎豆瓣链接 https://movie.douban.com/subject/19973780/
◎片  长 98分钟
◎导  演 斯蒂芬·弗雷斯 Stephen Frears
◎编  剧 史蒂夫·库根 Steve Coogan
       杰夫·波普 Jeff Pope
       马丁·西克史密斯 Martin Sixsmith
◎演  员 朱迪·丹奇 Judi Dench
       史蒂夫·库根 Steve Coogan
       苏菲·肯尼迪·克拉克 Sophie Kennedy Clark
       梅尔·温宁汉姆 Mare Winningham
       芭芭拉·杰夫德 Barbara Jefford
       鲁斯·麦克卡比 Ruth McCabe
       皮特·赫尔曼 Peter Hermann
       肖恩·马洪 Sean Mahon
       安娜·麦克西维尔·马丁 Anna Maxwell Martin
       米歇尔·费尔利 Michelle Fairley
       乌米·马萨库 Wunmi Mosaku
       夏莉·墨菲 Charlie Murphy
       凯特·弗利特伍德 Kate Fleetwood
       凯茜·贝尔顿 Cathy Belton
       莎拉·斯图尔特 Sara Stewart
       艾略特·利维 Elliot Levey
       周佳纳 China Chow
       朱莉·沃洛诺 Julie Vollono
       艾米·麦克爱丽丝特尔 Amy McAllister
       西蒙内·拉赫比比 Simone Lahbib
       内芙·加切夫 Neve Gachev
       查尔斯·爱德华兹 Charles Edwards
       尼可拉·芬恩 Nichola Fynn
       泽维尔·阿特金斯 Xavier Atkins
       爱丽丝·爱德华兹 Elise Edwards
       妮卡·麦圭根 Nika McGuigan
◎简  介
    1952年的爱尔兰,社会风气保守。少女菲洛米娜(朱迪·丹奇 Judi Dench 饰)因未婚怀孕,被家人送往修道院从事苦役,每天只有1小时与爱子安东尼相处。在安东尼3岁的时候,他被修女们强行抱走,送往美国寄养家庭。此后整整五十年菲洛米娜都沉浸在对爱子的思念中。她将故事告诉了一位记者马汀(史蒂夫·库根 Steve Coogan 饰),后者决定与她一同踏上寻子之旅。这对个性迥异、看似不可能成立的搭档,在希望与失落之间,展开的不只是慈母寻子的冒险,更是跨越友谊的见证。菲洛米娜慢慢了解到儿子不平凡的一生和鲜为人知的秘密,她这份迟来的爱能传递到失散多年的安东尼身上吗?                                                                        《菲洛梅娜》改编自 BBC记者马汀·斯克斯史密斯的纪实文学《菲洛梅娜遗失的孩子》,取材自真人真事。电影围绕一位母亲半个世纪后的跨海寻子,用喜剧的外观包装悲剧故事,让人在笑泪交织中收获感动,并且给予同性恋、艾滋以及恐同话题以恰如其分的重量。《菲洛梅娜》获得威尼斯电影节最佳剧本奖和LGBT最高荣誉断背狮奖,此外还得到了包括最佳影片在内的4项奥斯卡提名。
点击图片可查看大图
软字幕无法在截图上展现,HDR版本/杜比视界版本截图会出现颜色异常,请使用支持的设备播放!
##### MediaInfo ######
General
Unique ID                                : 205523395318724982350390150618916285977 (0x9A9E5DBACDB8FDCCB91DC7F0D1DF6E19)
Complete name                            : Philomena.2013.BluRay.1080p.DTS-HD.MA.5.1.x264-DreamHD.mkv
Duration                                 : 1 h 37 min
Overall bit rate mode                    : Variable
Overall bit rate                         : 19.2 Mb/s
Video
ID                                       : 1
Format                                   : AVC
Format/Info                              : Advanced Video Codec
Format profile                           : [email protected]
Format settings                          : CABAC / 4 Ref Frames
Format settings, CABAC                   : Yes
Format settings, Reference frames        : 4 frames
Codec ID                                 : V_MPEG4/ISO/AVC
Duration                                 : 1 h 37 min
Bit rate                                 : 16.0 Mb/s
Width                                    : 1 916 pixels
Height                                   : 1 038 pixels
Display aspect ratio                     : 1.85:1
Frame rate mode                          : Constant
Frame rate                               : 23.976 (24000/1001) FPS
Color space                              : YUV
Chroma subsampling                       : 4:2:0
Bit depth                                : 8 bits
Scan type                                : Progressive
Bits/(Pixel*Frame)                       : 0.336
Stream size                              : 10.9 GiB (83%)
Writing library                          : x264 core 157 r2867+150 7e91e0e t_mod_Custom_2 [8-bit@all X86_64]
Encoding settings                        : cabac=1 / ref=4 / deblock=1:-3:-3 / analyse=0x3:0x133 / me=umh / subme=11 / psy=1 / fade_compensate=0.00 / psy_rd=0.95:0.10 / mixed_ref=1 / me_range=48 / chroma_me=1 / trellis=2 / 8x8dct=1 / cqm=0 / deadzone=21,11 / fast_pskip=0 / chroma_qp_offset=-4 / threads=30 / lookahead_threads=5 / sliced_threads=0 / nr=0 / decimate=1 / interlaced=0 / bluray_compat=0 / constrained_intra=0 / fgo=0 / bframes=8 / b_pyramid=2 / b_adapt=2 / b_bias=0 / direct=3 / weightb=1 / open_gop=0 / weightp=2 / keyint=250 / keyint_min=23 / scenecut=40 / intra_refresh=0 / rc_lookahead=60 / rc=2pass / mbtree=0 / bitrate=16000 / ratetol=1.0 / qcomp=0.70 / qpmin=0:0:0 / qpmax=69:69:69 / qpstep=4 / cplxblur=20.0 / qblur=0.5 / vbv_maxrate=35000 / vbv_bufsize=35000 / nal_hrd=none / filler=0 / ip_ratio=1.40 / pb_ratio=1.30 / aq=3:1.00 / aq-sensitivity=10.00 / aq-factor=1.00:1.00:1.00 / aq2=0 / aq3=2:[0.50:0.50]:[0.50:0.50]:[0.50:0.50]:[0.50:0.50] / aq3-sensitivity=10.00 / aq3-factor=[1.00:1.00]:[1.00:1.00]:[1.00:1.00] / aq3-boundary=192:64:24
Default                                  : Yes
Forced                                   : No
Audio
ID                                       : 2
Format                                   : DTS XLL
Format/Info                              : Digital Theater Systems
Commercial name                          : DTS-HD Master Audio
Codec ID                                 : A_DTS
Duration                                 : 1 h 37 min
Bit rate mode                            : Variable
Bit rate                                 : 3 184 kb/s
Channel(s)                               : 6 channels
Channel layout                           : C L R Ls Rs LFE
Sampling rate                            : 48.0 kHz
Frame rate                               : 93.750 FPS (512 SPF)
Bit depth                                : 24 bits
Compression mode                         : Lossless
Stream size                              : 2.18 GiB (17%)
Language                                 : English
Default                                  : Yes
Forced                                   : No
Text #1
ID                                       : 3
Format                                   : PGS
Muxing mode                              : zlib
Codec ID                                 : S_HDMV/PGS
Codec ID/Info                            : Picture based subtitle format used on BDs/HD-DVDs
Duration                                 : 1 h 31 min
Bit rate                                 : 31.2 kb/s
Frame rate                               : 0.377 FPS
Count of elements                        : 2077
Stream size                              : 20.5 MiB (0%)
Language                                 : English
Default                                  : Yes
Forced                                   : No
Text #2
ID                                       : 4
Format                                   : PGS
Muxing mode                              : zlib
Codec ID                                 : S_HDMV/PGS
Codec ID/Info                            : Picture based subtitle format used on BDs/HD-DVDs
Duration                                 : 1 h 32 min
Bit rate                                 : 32.3 kb/s
Frame rate                               : 0.382 FPS
Count of elements                        : 2117
Stream size                              : 21.3 MiB (0%)
Title                                    : CHS
Language                                 : Chinese
Default                                  : Yes
Forced                                   : No
Text #3
ID                                       : 5
Format                                   : PGS
Muxing mode                              : zlib
Codec ID                                 : S_HDMV/PGS
Codec ID/Info                            : Picture based subtitle format used on BDs/HD-DVDs
Duration                                 : 1 h 32 min
Bit rate                                 : 52.7 kb/s
Frame rate                               : 0.382 FPS
Count of elements                        : 2117
Stream size                              : 34.8 MiB (0%)
Title                                    : CHS&ENG
Language                                 : Chinese
Default                                  : Yes
Forced                                   : No
Menu
00:00:00.000                             : en:第 01 章
00:08:19.708                             : en:第 02 章
00:13:18.673                             : en:第 03 章
00:21:32.750                             : en:第 04 章
00:26:56.532                             : en:第 05 章
00:31:21.630                             : en:第 06 章
00:37:19.863                             : en:第 07 章
00:43:18.221                             : en:第 08 章
00:49:14.368                             : en:第 09 章
00:56:57.831                             : en:第 10 章
01:05:00.855                             : en:第 11 章
01:09:59.278                             : en:第 12 章
01:15:01.664                             : en:第 13 章
01:22:49.631                             : en:第 14 章
01:29:21.856                             : en:第 15 章
01:32:33.506                             : en:第 16 章
部分资源为软字幕,移动端推荐播放器:MxPlayer,nPlayer,infuse ,其他播放器请自行尝试。
部分资源为软字幕,电脑端推荐播放器:PotPlayer,完美解码,KMPLAYER,其他播放器请自行尝试。






~~~~~~~~~~~~~~~~~~~~~~~~~~~~~~~~~~~~~~~~~
[2013][其它][剧情][BD-1080P]菲洛梅娜[中文字幕].Philomena.2013.BluRay.1080p.DTS-HD.MA.5.1.x264- 13.16GB

【文件列表】:


Philomena.2013.BluRay.1080p.DTS-HD.MA.5.1.x264-DreamHD.



【下载地址列表】:


游客
文件下载链接就在这里,在您回复评论成功后才能显示。
请勿回复无意义的灌水内容。


下拉页面到最底部回复或者【点击此处快捷回复】,回复后返回此处即可查看下载链接。
如您没注册本站会员,可以点击注册本站,注册后即可回复下载。



软字幕无法在截图上展现,HDR版本/杜比视界版本截图会出现颜色异常,请使用支持的设备播放!






[img][/img]






[img][/img]

(HDR版本/杜比视界版本,截图会出现颜色异常,请使用支持的设备播放)

小贴士:【影视自媒体解说文案请移步:夏至文案解说网 www.xiazhi.vip

上一篇:[更 早][欧美][剧情][BD-1080P]花村[简繁英字幕].McCabe.&.Mrs.Miller.1971.CC.1080p.BluRay.x265.10bit.FLAC.1.0-SONYH
下一篇:[2013][其它][剧情][BD-1080P]菲洛梅娜[中文字幕].Philomena.2013.BluRay.1080p.DTS-HD.MA.5.1.x265.10bit- 7.39GB
回复

使用道具 举报

您需要登录后才可以回帖 登录 | 立即注册

本版积分规则

Archiver|手机版|小众纪录片影视聚合

GMT+8, 2024-7-22 06:44 , Processed in 0.069455 second(s), 13 queries , Gzip On, Redis On.

Powered by 小众纪录片影视聚合 @2010-2023

Copyright © 2010-2024, https://www.xzjlp.com/.


免责说明:本站所有内容链接、图文介绍等均来自于互联网网友分享,本站仅支持web页面展示和文字介绍,绝不提供在线观看和存储服务,也不参与录制、上传、压片。若本站收录内容无意侵犯贵司版权,请发邮件到【a885185#163.com】联系本站,我们将在第一时间删除侵权内容。谢谢!

快速回复 返回顶部 返回列表