小众纪录片影视聚合

 找回密码
 立即注册
查看: 7|回复: 0

[蓝光电影] [2024][大陆][剧情][WEB-1080P]陌路狂刀[国语配音/中文字幕].The.Wild.Blade.of.Strangers.2024.1080p.WEB-DL.H264.AAC- 1.

[复制链接]

109万

主题

109万

帖子

109万

积分

超级版主

Rank: 8Rank: 8

积分
1099659
发表于 4 天前 | 显示全部楼层 |阅读模式


[2024][大陆][剧情][WEB-1080P]陌路狂刀[国语配音/中文字幕].The.Wild.Blade.of.Strangers.2024.1080p.WEB-DL.H264.AAC- 1.

完整标题:陌路狂刀[国语配音/中文字幕].The.Wild.Blade.of.Strangers.2024.1080p.WEB-DL.H264.AAC-BATWEB 1.53GB
◎标  题 陌路狂刀
◎译  名 The Wild Blade of Strangers
◎年  代 2024
◎产  地 中国大陆
◎类  别 剧情 / 动作 / 武侠 / 古装
◎语  言 汉语普通话
◎上映日期 2024-03-02(中国大陆)
◎IMDb链接 https://www.imdb.com/title/tt31494700/
◎豆瓣链接 https://movie.douban.com/subject/36402339/
◎片  长 102分钟
◎导  演 李伟 Wei Li
◎编  剧 李萌 Meng Li
◎演  员 张晋 Max Zhang
       耿乐 Le Geng
       夏梦 Meng Xia
       蒋璐霞 Luxia Jiang
       刘桦 Hua Liu
       刘峰超 Fengchao Liu
       冯雷 Lei Feng
       朱时茂 Shimao Zhu
◎简  介
    天下大乱,齐王篡权,暗中诛杀太子遗嗣,卖炭翁田安邺无意中卷入此局,一番亦敌亦友的殊死争斗中,田安邺身上的秘密,以及当年梁城百姓殉城的真相也被揭开……
点击图片可查看大图
软字幕无法在截图上展现,HDR版本/杜比视界版本截图会出现颜色异常,请使用支持的设备播放!
##### MediaInfo ######
General
Complete name                            : The.Wild.Blade.of.Strangers.2024.1080p.WEB-DL.H264.AAC-BATWEB.mp4
Duration                                 : 1 h 42 min
Overall bit rate mode                    : Variable
Overall bit rate                         : 2 145 kb/s
Video
ID                                       : 1
Format                                   : AVC
Format/Info                              : Advanced Video Codec
Format profile                           : High@L4
Format settings                          : CABAC / 3 Ref Frames
Format settings, CABAC                   : Yes
Format settings, Reference frames        : 3 frames
Codec ID                                 : avc1
Codec ID/Info                            : Advanced Video Coding
Duration                                 : 1 h 42 min
Bit rate                                 : 1 950 kb/s
Width                                    : 1 920 pixels
Height                                   : 800 pixels
Display aspect ratio                     : 2.40:1
Frame rate mode                          : Constant
Frame rate                               : 24.000 FPS
Color space                              : YUV
Chroma subsampling                       : 4:2:0
Bit depth                                : 8 bits
Scan type                                : Progressive
Bits/(Pixel*Frame)                       : 0.053
Stream size                              : 1.39 GiB (91%)
Color range                              : Limited
Color primaries                          : BT.709
Transfer characteristics                 : BT.709
Matrix coefficients                      : BT.709
Codec configuration box                  : avcC
Audio
ID                                       : 2
Format                                   : AAC LC
Format/Info                              : Advanced Audio Codec Low Complexity
Codec ID                                 : mp4a-40-2
Duration                                 : 1 h 42 min
Bit rate mode                            : Variable
Bit rate                                 : 192 kb/s
Maximum bit rate                         : 196 kb/s
Channel(s)                               : 2 channels
Channel layout                           : L R
Sampling rate                            : 44.1 kHz
Frame rate                               : 43.066 FPS (1024 SPF)
Compression mode                         : Lossy
Stream size                              : 139 MiB (9%)
Default                                  : Yes
Alternate group                          : 1
部分资源为软字幕,移动端推荐播放器:MxPlayer,nPlayer,infuse ,其他播放器请自行尝试。
部分资源为软字幕,电脑端推荐播放器:PotPlayer,完美解码,KMPLAYER,其他播放器请自行尝试。






~~~~~~~~~~~~~~~~~~~~~~~~~~~~~~~~~~~~~~~~~
[2024][大陆][剧情][WEB-1080P]陌路狂刀[国语配音/中文字幕].The.Wild.Blade.of.Strangers.2024.1080p.WEB-DL.H264.AAC- 1.

【文件列表】:


The.Wild.Blade.of.Strangers.2024.1080p.WEB-DL.H264.AAC-BATWEB.



【下载地址列表】:


游客
文件下载链接就在这里,在您回复评论成功后才能显示。
请勿回复无意义的灌水内容。


下拉页面到最底部回复或者【点击此处快捷回复】,回复后返回此处即可查看下载链接。
如您没注册本站会员,可以点击注册本站,注册后即可回复下载。



软字幕无法在截图上展现,HDR版本/杜比视界版本截图会出现颜色异常,请使用支持的设备播放!






[img][/img]






[img][/img]

(HDR版本/杜比视界版本,截图会出现颜色异常,请使用支持的设备播放)

小贴士:【影视自媒体解说文案请移步:夏至文案解说网 www.xiazhi.vip

上一篇:[更 早][其它][动作][BD-1080P]星际之门[简繁英字幕].Stargate.1994.1080p.BluRay.x265.10bit.DTS- 9.47GB
下一篇:[2024][大陆][剧情][WEB-1080P]陌路狂刀[国语配音/中文字幕].The.Wild.Blade.of.Strangers.2024.1080p.WEB-DL.H265.DDP5.1.Atmos-
回复

使用道具 举报

您需要登录后才可以回帖 登录 | 立即注册

本版积分规则

Archiver|手机版|小众纪录片影视聚合

GMT+8, 2024-7-13 00:31 , Processed in 0.153230 second(s), 13 queries , Gzip On, Redis On.

Powered by 小众纪录片影视聚合 @2010-2023

Copyright © 2010-2024, https://www.xzjlp.com/.


免责说明:本站所有内容链接、图文介绍等均来自于互联网网友分享,本站仅支持web页面展示和文字介绍,绝不提供在线观看和存储服务,也不参与录制、上传、压片。若本站收录内容无意侵犯贵司版权,请发邮件到【a885185#163.com】联系本站,我们将在第一时间删除侵权内容。谢谢!

快速回复 返回顶部 返回列表