小众纪录片影视聚合

 找回密码
 立即注册
查看: 5|回复: 0

[蓝光电影] [2024][大陆][剧情][WEB-4K]陌路狂刀[国语配音/中文字幕].The.Wild.Blade.of.Strangers.2024.2160p.WEB-DL.H265.HDR.DDP5.1.At

[复制链接]

112万

主题

112万

帖子

112万

积分

超级版主

Rank: 8Rank: 8

积分
1128817
发表于 7 天前 | 显示全部楼层 |阅读模式


[2024][大陆][剧情][WEB-4K]陌路狂刀[国语配音/中文字幕].The.Wild.Blade.of.Strangers.2024.2160p.WEB-DL.H265.HDR.DDP5.1.At

完整标题:陌路狂刀[国语配音/中文字幕].The.Wild.Blade.of.Strangers.2024.2160p.WEB-DL.H265.HDR.DDP5.1.Atmos-BATWEB 11.92GB
◎标  题 陌路狂刀
◎译  名 The Wild Blade of Strangers
◎年  代 2024
◎产  地 中国大陆
◎类  别 剧情 / 动作 / 武侠 / 古装
◎语  言 汉语普通话
◎上映日期 2024-03-02(中国大陆)
◎IMDb链接 https://www.imdb.com/title/tt31494700/
◎豆瓣链接 https://movie.douban.com/subject/36402339/
◎片  长 102分钟
◎导  演 李伟 Wei Li
◎编  剧 李萌 Meng Li
◎演  员 张晋 Max Zhang
       耿乐 Le Geng
       夏梦 Meng Xia
       蒋璐霞 Luxia Jiang
       刘桦 Hua Liu
       刘峰超 Fengchao Liu
       冯雷 Lei Feng
       朱时茂 Shimao Zhu
◎简  介
    天下大乱,齐王篡权,暗中诛杀太子遗嗣,卖炭翁田安邺无意中卷入此局,一番亦敌亦友的殊死争斗中,田安邺身上的秘密,以及当年梁城百姓殉城的真相也被揭开……
点击图片可查看大图
软字幕无法在截图上展现,HDR版本/杜比视界版本截图会出现颜色异常,请使用支持的设备播放!
##### MediaInfo ######
General
Unique ID                                : 136451511318240083247552164581829089578 (0x66A79AEBCBE8388A52F381638CD5992A)
Complete name                            : The.Wild.Blade.of.Strangers.2024.2160p.WEB-DL.H265.HDR.DDP5.1.Atmos-BATWEB.mkv
Duration                                 : 1 h 42 min
Overall bit rate                         : 16.7 Mb/s
Video
ID                                       : 1
Format                                   : HEVC
Format/Info                              : High Efficiency Video Coding
Format profile                           : Main 10@L5@Main
HDR format                               : SMPTE ST 2086, HDR10 compatible
Codec ID                                 : V_MPEGH/ISO/HEVC
Duration                                 : 1 h 42 min
Bit rate                                 : 16.0 Mb/s
Width                                    : 3 840 pixels
Height                                   : 1 608 pixels
Display aspect ratio                     : 2.40:1
Frame rate mode                          : Constant
Frame rate                               : 24.000 FPS
Color space                              : YUV
Chroma subsampling                       : 4:2:0
Bit depth                                : 10 bits
Bits/(Pixel*Frame)                       : 0.108
Stream size                              : 11.5 GiB (96%)
Language                                 : Chinese
Default                                  : Yes
Forced                                   : No
Color range                              : Limited
Color primaries                          : BT.2020
Transfer characteristics                 : PQ
Matrix coefficients                      : BT.2020 non-constant
Mastering display color primaries        : R: x=0.708000 y=0.292000, G: x=0.170000 y=0.797000, B: x=0.130000 y=0.046000, White point: x=0.312700 y=0.329000
Mastering display luminance              : min: 0.0001 cd/m2, max: 1000 cd/m2
Maximum Content Light Level              : 1332 cd/m2
Maximum Frame-Average Light Level        : 249 cd/m2
Audio #1
ID                                       : 2
Format                                   : AAC LC
Format/Info                              : Advanced Audio Codec Low Complexity
Codec ID                                 : A_AAC-2
Duration                                 : 1 h 42 min
Bit rate                                 : 192 kb/s
Channel(s)                               : 2 channels
Channel layout                           : L R
Sampling rate                            : 44.1 kHz
Frame rate                               : 43.066 FPS (1024 SPF)
Compression mode                         : Lossy
Stream size                              : 139 MiB (1%)
Default                                  : No
Forced                                   : No
Audio #2
ID                                       : 3
Format                                   : E-AC-3 JOC
Format/Info                              : Enhanced AC-3 with Joint Object Coding
Commercial name                          : Dolby Digital Plus with Dolby Atmos
Codec ID                                 : A_AC3
Duration                                 : 1 h 42 min
Bit rate mode                            : Constant
Bit rate                                 : 448 kb/s
Channel(s)                               : 3 channels
Channel(s)_Original                      : 6 channels
ChannelLayout_Original                   : L R C LFE Ls Rs
Sampling rate                            : 48.0 kHz
Frame rate                               : 31.250 FPS (1536 SPF)
Compression mode                         : Lossy
Delay relative to video                  : 3 ms
Stream size                              : 328 MiB (3%)
Title                                    : zh-ch [Dolby Digital Plus with Dolby Atmos 5.1]
Language                                 : Chinese
Service kind                             : Complete Main
Default                                  : Yes
Forced                                   : No
Complexity index                         : 16
Number of dynamic objects                : 15
Bed channel count                        : 1 channel
Bed channel configuration                : LFE
部分资源为软字幕,移动端推荐播放器:MxPlayer,nPlayer,infuse ,其他播放器请自行尝试。
部分资源为软字幕,电脑端推荐播放器:PotPlayer,完美解码,KMPLAYER,其他播放器请自行尝试。






~~~~~~~~~~~~~~~~~~~~~~~~~~~~~~~~~~~~~~~~~
[2024][大陆][剧情][WEB-4K]陌路狂刀[国语配音/中文字幕].The.Wild.Blade.of.Strangers.2024.2160p.WEB-DL.H265.HDR.DDP5.1.At

【文件列表】:


The.Wild.Blade.of.Strangers.2024.2160p.WEB-DL.H265.HDR.DDP5.1.Atmos-BATWEB.



【下载地址列表】:


游客
文件下载链接就在这里,在您回复评论成功后才能显示。
请勿回复无意义的灌水内容。


下拉页面到最底部回复或者【点击此处快捷回复】,回复后返回此处即可查看下载链接。
如您没注册本站会员,可以点击注册本站,注册后即可回复下载。



软字幕无法在截图上展现,HDR版本/杜比视界版本截图会出现颜色异常,请使用支持的设备播放!






[img][/img]






[img][/img]

(HDR版本/杜比视界版本,截图会出现颜色异常,请使用支持的设备播放)

小贴士:【影视自媒体解说文案请移步:夏至文案解说网 www.xiazhi.vip

上一篇:[2024][大陆][剧情][WEB-4K]陌路狂刀[国语配音/中文字幕].The.Wild.Blade.of.Strangers.2024.2160p.WEB-DL.H265.EDR.DDP5.1.At
下一篇:[2023][美国][动作][BD-1080P]海王2:失落的王国 Aquaman.and.the.Lost.Kingdom.1080p.BluRay.x264.Atmos.TrueHD7.1-WiKi
回复

使用道具 举报

您需要登录后才可以回帖 登录 | 立即注册

本版积分规则

Archiver|手机版|小众纪录片影视聚合

GMT+8, 2024-7-16 23:00 , Processed in 0.298201 second(s), 12 queries , Gzip On, Redis On.

Powered by 小众纪录片影视聚合 @2010-2023

Copyright © 2010-2024, https://www.xzjlp.com/.


免责说明:本站所有内容链接、图文介绍等均来自于互联网网友分享,本站仅支持web页面展示和文字介绍,绝不提供在线观看和存储服务,也不参与录制、上传、压片。若本站收录内容无意侵犯贵司版权,请发邮件到【a885185#163.com】联系本站,我们将在第一时间删除侵权内容。谢谢!

快速回复 返回顶部 返回列表