小众纪录片影视聚合

 找回密码
 立即注册
查看: 8|回复: 0

[蓝光电影] [2024][大陆][喜剧][WEB-4K]临时劫案[高码版][国粤多音轨/中文字幕].Rob.N.Roll.2024.2160p.HQ.WEB-DL.H265.DDP5.1.2Audio-

[复制链接]

112万

主题

112万

帖子

112万

积分

超级版主

Rank: 8Rank: 8

积分
1128817
发表于 2024-7-9 21:19:57 | 显示全部楼层 |阅读模式


[2024][大陆][喜剧][WEB-4K]临时劫案[高码版][国粤多音轨/中文字幕].Rob.N.Roll.2024.2160p.HQ.WEB-DL.H265.DDP5.1.2Audio-

完整标题:临时劫案[高码版][国粤多音轨/中文字幕].Rob.N.Roll.2024.2160p.HQ.WEB-DL.H265.DDP5.1.2Audio-DreamHD 14.56GB
◎标  题 临时劫案
◎译  名 临时械劫 / Rob N Roll / Rob & Roll
◎片  名 臨時劫案
◎年  代 2024
◎产  地 中国大陆 / 中国香港
◎类  别 喜剧 / 动作 / 犯罪
◎语  言 粤语 / 汉语普通话
◎上映日期 2024-01-19(中国大陆)
◎IMDb链接 https://www.imdb.com/title/tt30958950/
◎豆瓣评分 6.2/10 (31946人评价)
◎豆瓣链接 https://movie.douban.com/subject/35491115/
◎片  长 97分钟
◎导  演 麦启光 Albert Kai-kwong Mak
◎编  剧 陈伟斌 Ryker Chan
       麦启光 Albert Kai-kwong Mak
       万芫澄 Uen-Ching Man
       林敏怡 Man Yee Lam
◎演  员 郭富城 Aaron Kwok
       林家栋 Ka Tung Lam
       任贤齐 Richie Jen
       张可颐 Maggie Cheung Ho Yee
       林雪 Suet Lam
       卢海鹏 Hoi-Pang Lo
       梁仲恒 Chung-Hang Leung
       鲍起静 Hee Ching Paw
       王敏德 Michael Wong
       孙佳君 Paulyn Sun
       曾比特 Mike Tsang
       符家浚 Calvert Fu
       张松枝 Deno Cheung
       姜卓文 John JR.Chiang
       陈毅燊 Anson Chan
       王颂茵 Kathy Wong
       姜大卫 David Chiang
       胡定欣 Nancy Wu Ting-yan
◎简  介
    颓废中年难兄难弟阿怂(林家栋 饰)、慕容辉(任贤齐 饰)计划抢劫却意外被悍匪梅蓝天(郭富城 饰)搅局,阴差阳错间三人临时组队,巨款眼看到手,却被他人捷足先登,与此同时女警探姜姐(张可颐 饰)也将三人锁定,一时间匪徒各怀鬼胎,在“我打劫,你打劫我”的江湖规则下,一袋钱引发连续偶然事件......
点击图片可查看大图
软字幕无法在截图上展现,HDR版本/杜比视界版本截图会出现颜色异常,请使用支持的设备播放!
##### MediaInfo ######
General
Unique ID                                : 58883067402557445126502753027478573858 (0x2C4C775DA768AF05A42DB2AFB8F4D322)
Complete name                            : Rob.N.Roll.2024.2160p.HQ.WEB-DL.H265.DDP5.1.2Audio-DreamHD.mkv
Duration                                 : 1 h 37 min
Overall bit rate                         : 21.3 Mb/s
Video
ID                                       : 1
Format                                   : HEVC
Format/Info                              : High Efficiency Video Coding
Format profile                           : Main [email protected]@Main
Codec ID                                 : V_MPEGH/ISO/HEVC
Duration                                 : 1 h 37 min
Bit rate                                 : 19.9 Mb/s
Width                                    : 3 840 pixels
Height                                   : 1 616 pixels
Display aspect ratio                     : 2.40:1
Frame rate mode                          : Constant
Frame rate                               : 24.000 FPS
Color space                              : YUV
Chroma subsampling                       : 4:2:0
Bit depth                                : 10 bits
Bits/(Pixel*Frame)                       : 0.134
Stream size                              : 13.6 GiB (93%)
Default                                  : Yes
Forced                                   : No
Color range                              : Limited
Color primaries                          : BT.709
Transfer characteristics                 : BT.709
Matrix coefficients                      : BT.709
Audio #1
ID                                       : 2
Format                                   : E-AC-3
Format/Info                              : Enhanced AC-3
Commercial name                          : Dolby Digital Plus
Codec ID                                 : A_EAC3
Duration                                 : 1 h 37 min
Bit rate mode                            : Constant
Bit rate                                 : 448 kb/s
Channel(s)                               : 6 channels
Channel layout                           : L R C LFE Ls Rs
Sampling rate                            : 48.0 kHz
Frame rate                               : 31.250 FPS (1536 SPF)
Compression mode                         : Lossy
Stream size                              : 313 MiB (2%)
Title                                    : Cantonese [DDP5.1]
Language                                 : Chinese
Service kind                             : Complete Main
Default                                  : Yes
Forced                                   : No
Audio #2
ID                                       : 3
Format                                   : E-AC-3
Format/Info                              : Enhanced AC-3
Commercial name                          : Dolby Digital Plus
Codec ID                                 : A_EAC3
Duration                                 : 1 h 37 min
Bit rate mode                            : Constant
Bit rate                                 : 448 kb/s
Channel(s)                               : 6 channels
Channel layout                           : L R C LFE Ls Rs
Sampling rate                            : 48.0 kHz
Frame rate                               : 31.250 FPS (1536 SPF)
Compression mode                         : Lossy
Stream size                              : 313 MiB (2%)
Title                                    : Mandarin [DDP5.1]
Language                                 : Chinese
Service kind                             : Complete Main
Default                                  : No
Forced                                   : No
Audio #3
ID                                       : 4
Format                                   : AAC LC
Format/Info                              : Advanced Audio Codec Low Complexity
Codec ID                                 : A_AAC-2
Duration                                 : 1 h 37 min
Bit rate                                 : 256 kb/s
Channel(s)                               : 2 channels
Channel layout                           : L R
Sampling rate                            : 44.1 kHz
Frame rate                               : 43.066 FPS (1024 SPF)
Compression mode                         : Lossy
Stream size                              : 179 MiB (1%)
Title                                    : Cantonese [AAC2.0]
Language                                 : Chinese
Default                                  : No
Forced                                   : No
Audio #4
ID                                       : 5
Format                                   : AAC LC
Format/Info                              : Advanced Audio Codec Low Complexity
Codec ID                                 : A_AAC-2
Duration                                 : 1 h 37 min
Bit rate                                 : 256 kb/s
Channel(s)                               : 2 channels
Channel layout                           : L R
Sampling rate                            : 44.1 kHz
Frame rate                               : 43.066 FPS (1024 SPF)
Compression mode                         : Lossy
Stream size                              : 179 MiB (1%)
Title                                    : Mandarin [AAC2.0]
Language                                 : Chinese
Default                                  : No
Forced                                   : No
部分资源为软字幕,移动端推荐播放器:MxPlayer,nPlayer,infuse ,其他播放器请自行尝试。
部分资源为软字幕,电脑端推荐播放器:PotPlayer,完美解码,KMPLAYER,其他播放器请自行尝试。






~~~~~~~~~~~~~~~~~~~~~~~~~~~~~~~~~~~~~~~~~
[2024][大陆][喜剧][WEB-4K]临时劫案[高码版][国粤多音轨/中文字幕].Rob.N.Roll.2024.2160p.HQ.WEB-DL.H265.DDP5.1.2Audio-

【文件列表】:


Rob.N.Roll.2024.2160p.HQ.WEB-DL.H265.DDP5.1.2Audio-DreamHD.



【下载地址列表】:


游客
文件下载链接就在这里,在您回复评论成功后才能显示。
请勿回复无意义的灌水内容。


下拉页面到最底部回复或者【点击此处快捷回复】,回复后返回此处即可查看下载链接。
如您没注册本站会员,可以点击注册本站,注册后即可回复下载。



软字幕无法在截图上展现,HDR版本/杜比视界版本截图会出现颜色异常,请使用支持的设备播放!






[img][/img]






[img][/img]

(HDR版本/杜比视界版本,截图会出现颜色异常,请使用支持的设备播放)

小贴士:【影视自媒体解说文案请移步:夏至文案解说网 www.xiazhi.vip

上一篇:[2024][大陆][喜剧][WEB-4K]临时劫案[60帧率版本][高码版][国粤多音轨/中文字幕].Rob.N.Roll.2024.2160p.HQ.WEB-DL.H265.60fps.DDP5.1.
下一篇:[2024][大陆][喜剧][WEB-4K]临时劫案[120帧率版本][国粤多音轨/中文字幕].Rob.N.Roll.2024.2160p.WEB-DL.H265.120fps.DDP5.1.2Audio
回复

使用道具 举报

您需要登录后才可以回帖 登录 | 立即注册

本版积分规则

Archiver|手机版|小众纪录片影视聚合

GMT+8, 2024-7-17 00:37 , Processed in 0.259289 second(s), 12 queries , Gzip On, Redis On.

Powered by 小众纪录片影视聚合 @2010-2023

Copyright © 2010-2024, https://www.xzjlp.com/.


免责说明:本站所有内容链接、图文介绍等均来自于互联网网友分享,本站仅支持web页面展示和文字介绍,绝不提供在线观看和存储服务,也不参与录制、上传、压片。若本站收录内容无意侵犯贵司版权,请发邮件到【a885185#163.com】联系本站,我们将在第一时间删除侵权内容。谢谢!

快速回复 返回顶部 返回列表