小众纪录片影视聚合

 找回密码
 立即注册
查看: 6|回复: 0

[蓝光电影] [更 早][日本][剧情][WEB-1080P]东尼泷谷[中文字幕].Tony.Takitani.2004.1080p.CATCHPLAY.WEB-DL.AAC2.0.H.264- 2.16GB

[复制链接]

116万

主题

116万

帖子

116万

积分

超级版主

Rank: 8Rank: 8

积分
1167997
发表于 2024-7-9 21:20:32 | 显示全部楼层 |阅读模式


[更 早][日本][剧情][WEB-1080P]东尼泷谷[中文字幕].Tony.Takitani.2004.1080p.CATCHPLAY.WEB-DL.AAC2.0.H.264- 2.16GB

完整标题:东尼泷谷[中文字幕].Tony.Takitani.2004.1080p.CATCHPLAY.WEB-DL.AAC2.0.H.264-DreamHD 2.16GB
◎标  题 东尼泷谷
◎译  名 托尼瀑布 / Tony Takitani
◎片  名 トニー滝谷
◎年  代 2005
◎产  地 日本
◎类  别 剧情
◎语  言 日语
◎上映日期 2005-01-29(日本)
◎IMDb评分 7.2/10 (4835人评价)
◎IMDb链接 https://www.imdb.com/title/tt0420260/
◎豆瓣评分 7.8/10 (4522人评价)
◎豆瓣链接 https://movie.douban.com/subject/1351675/
◎片  长 76分钟
◎导  演 市川准 Jun Ichikawa
◎编  剧 市川准 Jun Ichikawa
       村上春树 Haruki Murakami
◎演  员 尾形一成 Issei Ogata
       宫泽理惠 Rie Miyazawa
       西岛秀俊 Hidetoshi Nishijima
       藤真美穗 Miho Fujima
       林田麻里 Miki Hayashida
       山本浩司 Hiroshi Yamamoto
       小山田小百合 Sayuri Oyamada
       木野花 Hana Kino
◎简  介
    故事发生在第二次世界大战期间,为了躲避战乱,瀑谷省三郎(尾形一成 饰)远赴中国,在一家夜总会中靠着演奏长号维持生计。长久以来的孤独和压抑扭曲了省三郎的性格,他开始变得沉默寡言。战争结束后,省三郎回到了故乡,结婚成家。                                    妻子的怀孕给省三郎带来了久违的快乐,让他没有想到的是,儿子托尼(西岛秀俊 饰)的诞生伴随着的竟然是妻子的死亡。随着时间的推移,托尼慢慢的长大了,他早已经习惯了阴沉冷漠的父亲,以及孤独无援的童年。之后,托尼考入了美术大学,开始将精力和时间投入到了艺术创作上面,在艺术方面颇有天赋的托尼很快就取得了不小的成就,亦改变了托尼的人生轨迹。
点击图片可查看大图
软字幕无法在截图上展现,HDR版本/杜比视界版本截图会出现颜色异常,请使用支持的设备播放!
##### MediaInfo ######
General
Unique ID                                : 283465661171776874162776486159807407313 (0xD541802122FB632CB861DFF69BDBE4D1)
Complete name                            : Tony.Takitani.2004.1080p.CATCHPLAY.WEB-DL.AAC2.0.H.264-DreamHD.mkv
Duration                                 : 1 h 16 min
Overall bit rate mode                    : Variable
Overall bit rate                         : 4 071 kb/s
Video
ID                                       : 1
Format                                   : AVC
Format/Info                              : Advanced Video Codec
Format profile                           : [email protected]
Format settings                          : CABAC / 4 Ref Frames
Format settings, CABAC                   : Yes
Format settings, Reference frames        : 4 frames
Format settings, GOP                     : M=3, N=48
Codec ID                                 : V_MPEG4/ISO/AVC
Duration                                 : 1 h 16 min
Bit rate mode                            : Variable
Bit rate                                 : 3 940 kb/s
Maximum bit rate                         : 6 000 kb/s
Width                                    : 1 920 pixels
Height                                   : 1 080 pixels
Display aspect ratio                     : 16:9
Frame rate mode                          : Constant
Frame rate                               : 23.976 (23976/1000) FPS
Original frame rate                      : 23.976 (24000/1001) FPS
Color space                              : YUV
Chroma subsampling                       : 4:2:0
Bit depth                                : 8 bits
Scan type                                : Progressive
Bits/(Pixel*Frame)                       : 0.079
Stream size                              : 2.09 GiB (97%)
Language                                 : Japanese
Default                                  : Yes
Forced                                   : No
Audio
ID                                       : 2
Format                                   : AAC LC
Format/Info                              : Advanced Audio Codec Low Complexity
Codec ID                                 : A_AAC-2
Duration                                 : 1 h 16 min
Bit rate                                 : 128 kb/s
Channel(s)                               : 2 channels
Channel layout                           : L R
Sampling rate                            : 48.0 kHz
Frame rate                               : 46.875 FPS (1024 SPF)
Compression mode                         : Lossy
Stream size                              : 69.7 MiB (3%)
Language                                 : Japanese
Default                                  : Yes
Forced                                   : No
Text #1
ID                                       : 3
Format                                   : UTF-8
Codec ID                                 : S_TEXT/UTF8
Codec ID/Info                            : UTF-8 Plain Text
Duration                                 : 1 h 11 min
Bit rate                                 : 54 b/s
Frame rate                               : 0.280 FPS
Count of elements                        : 1201
Stream size                              : 28.7 KiB (0%)
Language                                 : Chinese
Default                                  : No
Forced                                   : No
Text #2
ID                                       : 4
Format                                   : UTF-8
Codec ID                                 : S_TEXT/UTF8
Codec ID/Info                            : UTF-8 Plain Text
Duration                                 : 1 h 11 min
Bit rate                                 : 23 b/s
Frame rate                               : 0.128 FPS
Count of elements                        : 550
Stream size                              : 12.3 KiB (0%)
Title                                    : Taiwan
Language                                 : Chinese
Default                                  : No
Forced                                   : No
部分资源为软字幕,移动端推荐播放器:MxPlayer,nPlayer,infuse ,其他播放器请自行尝试。
部分资源为软字幕,电脑端推荐播放器:PotPlayer,完美解码,KMPLAYER,其他播放器请自行尝试。






~~~~~~~~~~~~~~~~~~~~~~~~~~~~~~~~~~~~~~~~~
[更 早][日本][剧情][WEB-1080P]东尼泷谷[中文字幕].Tony.Takitani.2004.1080p.CATCHPLAY.WEB-DL.AAC2.0.H.264- 2.16GB

【文件列表】:


Tony.Takitani.2004.1080p.CATCHPLAY.WEB-DL.AAC2.0.H.264-DreamHD.



【下载地址列表】:


游客
文件下载链接就在这里,在您回复评论成功后才能显示。
请勿回复无意义的灌水内容。


下拉页面到最底部回复或者【点击此处快捷回复】,回复后返回此处即可查看下载链接。
如您没注册本站会员,可以点击注册本站,注册后即可回复下载。



软字幕无法在截图上展现,HDR版本/杜比视界版本截图会出现颜色异常,请使用支持的设备播放!






[img][/img]






[img][/img]

(HDR版本/杜比视界版本,截图会出现颜色异常,请使用支持的设备播放)

小贴士:【影视自媒体解说文案请移步:夏至文案解说网 www.xiazhi.vip

上一篇:[2012][台湾][剧情][WEB-1080P]爱的面包魂[国语配音/中文字幕].The.Soul.of.Bread.2012.1080p.CATCHPLAY.WEB-DL.AAC2.0.H.264-Drea
下一篇:[2019][欧美][其它][WEB-1080P]西部明星[中文字幕].Western.Stars.2020.1080p.iTunes.WEB-DL.DDP5.1.Atmos.H264- 4.26G
回复

使用道具 举报

您需要登录后才可以回帖 登录 | 立即注册

本版积分规则

Archiver|手机版|小众纪录片影视聚合

GMT+8, 2024-7-24 22:59 , Processed in 0.191205 second(s), 12 queries , Gzip On, Redis On.

Powered by 小众纪录片影视聚合 @2010-2023

Copyright © 2010-2024, https://www.xzjlp.com/.


免责说明:本站所有内容链接、图文介绍等均来自于互联网网友分享,本站仅支持web页面展示和文字介绍,绝不提供在线观看和存储服务,也不参与录制、上传、压片。若本站收录内容无意侵犯贵司版权,请发邮件到【a885185#163.com】联系本站,我们将在第一时间删除侵权内容。谢谢!

快速回复 返回顶部 返回列表