小众纪录片影视聚合

 找回密码
 立即注册
查看: 6|回复: 0

[蓝光电影] [2019][欧美][其它][WEB-4K]西部明星[HDR/杜比视界双版本][中文字幕].Western.Stars.2020.2160p.iTunes.WEB-DL.DDP5.1.Atmos.DV.H

[复制链接]

112万

主题

112万

帖子

112万

积分

超级版主

Rank: 8Rank: 8

积分
1128817
发表于 7 天前 | 显示全部楼层 |阅读模式


[2019][欧美][其它][WEB-4K]西部明星[HDR/杜比视界双版本][中文字幕].Western.Stars.2020.2160p.iTunes.WEB-DL.DDP5.1.Atmos.DV.H

完整标题:西部明星[HDR/杜比视界双版本][中文字幕].Western.Stars.2020.2160p.iTunes.WEB-DL.DDP5.1.Atmos.DV.HDR.H.265-BATWEB 8.89GB
◎标  题 西部明星
◎译  名 西部之星
◎片  名 Western Stars
◎年  代 2019
◎产  地 美国
◎类  别 纪录片 / 音乐
◎语  言 英语
◎上映日期 2019-09-12(多伦多电影节) / 2019-10-25(美国)
◎IMDb评分 7.6/10 (1947人评价)
◎IMDb链接 https://www.imdb.com/title/tt10687158/
◎豆瓣评分 8.1/10 (467人评价)
◎豆瓣链接 https://movie.douban.com/subject/34663538/
◎片  长 83分钟
◎导  演 托姆·齐穆尼 Thom Zimny
       布鲁斯·斯普林斯汀 Bruce Springsteen
◎演  员 布鲁斯·斯普林斯汀 Bruce Springsteen
       帕蒂·夏尔法 Patti Scialfa
◎简  介
    该片也是70岁的斯普林斯汀的最新专辑的同名电影,他与《斯普林斯汀在百老汇》的导演Thom Zimny一起执导,聚焦他如今的生活、心态和对音乐和舞台的感悟,还有他那有100年历史、“充满灵性”的谷仓,他如何回头和向前看,“我花了35年除掉自己性格中那些毁灭性的东西”。
点击图片可查看大图
软字幕无法在截图上展现,HDR版本/杜比视界版本截图会出现颜色异常,请使用支持的设备播放!
##### MediaInfo ######
General
Unique ID                                : 181304829966441917654910979805642362213 (0x88660A449CBFF41672DF94F99E760D65)
Complete name                            : Western.Stars.2020.2160p.iTunes.WEB-DL.DDP5.1.Atmos.DV.HDR.H.265-BATWEB.mkv
Duration                                 : 1 h 23 min
Overall bit rate                         : 15.3 Mb/s
Video
ID                                       : 1
Format                                   : HEVC
Format/Info                              : High Efficiency Video Coding
Format profile                           : Main 10@L5@High
HDR format                               : Dolby Vision, Version 1.0, dvhe.08.06, BL+RPU, HDR10 compatible / SMPTE ST 2094 App 4, Version 1, HDR10+ Profile B compatible
Codec ID                                 : V_MPEGH/ISO/HEVC
Duration                                 : 1 h 23 min
Bit rate                                 : 14.5 Mb/s
Width                                    : 3 840 pixels
Height                                   : 1 596 pixels
Display aspect ratio                     : 2.40:1
Frame rate mode                          : Constant
Frame rate                               : 23.976 (23976/1000) FPS
Color space                              : YUV
Chroma subsampling                       : 4:2:0 (Type 2)
Bit depth                                : 10 bits
Bits/(Pixel*Frame)                       : 0.099
Stream size                              : 8.44 GiB (95%)
Default                                  : Yes
Forced                                   : No
Color range                              : Limited
Color primaries                          : BT.2020
Transfer characteristics                 : PQ
Matrix coefficients                      : BT.2020 non-constant
Mastering display color primaries        : BT.2020
Mastering display luminance              : min: 0.0050 cd/m2, max: 1000 cd/m2
Maximum Content Light Level              : 589 cd/m2
Maximum Frame-Average Light Level        : 58 cd/m2
Audio
ID                                       : 2
Format                                   : E-AC-3 JOC
Format/Info                              : Enhanced AC-3 with Joint Object Coding
Commercial name                          : Dolby Digital Plus with Dolby Atmos
Codec ID                                 : A_EAC3
Duration                                 : 1 h 23 min
Bit rate mode                            : Constant
Bit rate                                 : 768 kb/s
Channel(s)                               : 6 channels
Channel layout                           : L R C LFE Ls Rs
Sampling rate                            : 48.0 kHz
Frame rate                               : 31.250 FPS (1536 SPF)
Compression mode                         : Lossy
Stream size                              : 457 MiB (5%)
Title                                    : English (United States) [Dolby Digital Plus with Dolby Atmos 5.1]
Language                                 : English
Service kind                             : Complete Main
Default                                  : Yes
Forced                                   : No
Complexity index                         : 16
Number of dynamic objects                : 15
Bed channel count                        : 1 channel
Bed channel configuration                : LFE
Text #1
ID                                       : 3
Format                                   : UTF-8
Codec ID                                 : S_TEXT/UTF8
Codec ID/Info                            : UTF-8 Plain Text
Duration                                 : 1 h 15 min
Bit rate                                 : 14 b/s
Frame rate                               : 0.060 FPS
Count of elements                        : 268
Stream size                              : 7.72 KiB (0%)
Title                                    : 中文 (繁體)
Language                                 : Chinese
Default                                  : Yes
Forced                                   : No
Text #2
ID                                       : 4
Format                                   : UTF-8
Codec ID                                 : S_TEXT/UTF8
Codec ID/Info                            : UTF-8 Plain Text
Duration                                 : 1 h 15 min
Bit rate                                 : 14 b/s
Frame rate                               : 0.060 FPS
Count of elements                        : 268
Stream size                              : 7.72 KiB (0%)
Title                                    : 中文(简体)
Language                                 : Chinese
Default                                  : No
Forced                                   : No
Text #3
ID                                       : 5
Format                                   : UTF-8
Codec ID                                 : S_TEXT/UTF8
Codec ID/Info                            : UTF-8 Plain Text
Duration                                 : 1 h 14 min
Bit rate                                 : 14 b/s
Frame rate                               : 0.059 FPS
Count of elements                        : 266
Stream size                              : 8.22 KiB (0%)
Title                                    : ?e?tina
Language                                 : Czech
Default                                  : No
Forced                                   : No
Text #4
ID                                       : 6
Format                                   : UTF-8
Codec ID                                 : S_TEXT/UTF8
Codec ID/Info                            : UTF-8 Plain Text
Duration                                 : 1 h 14 min
Bit rate                                 : 16 b/s
Frame rate                               : 0.059 FPS
Count of elements                        : 264
Stream size                              : 9.24 KiB (0%)
Title                                    : Dansk
Language                                 : Danish
Default                                  : No
Forced                                   : No
Text #5
ID                                       : 7
Format                                   : UTF-8
Codec ID                                 : S_TEXT/UTF8
Codec ID/Info                            : UTF-8 Plain Text
Duration                                 : 1 h 14 min
Bit rate                                 : 18 b/s
Frame rate                               : 0.055 FPS
Count of elements                        : 247
Stream size                              : 9.95 KiB (0%)
Title                                    : Deutsch (Deutschland)
Language                                 : German
Default                                  : No
Forced                                   : No
Text #6
ID                                       : 8
Format                                   : UTF-8
Codec ID                                 : S_TEXT/UTF8
Codec ID/Info                            : UTF-8 Plain Text
Duration                                 : 1 h 14 min
Bit rate                                 : 17 b/s
Frame rate                               : 0.055 FPS
Count of elements                        : 248
Stream size                              : 9.84 KiB (0%)
Title                                    : Espa?ol (Latinoamérica)
Language                                 : Spanish
Default                                  : No
Forced                                   : No
Text #7
ID                                       : 9
Format                                   : UTF-8
Codec ID                                 : S_TEXT/UTF8
Codec ID/Info                            : UTF-8 Plain Text
Duration                                 : 1 h 14 min
Bit rate                                 : 16 b/s
Frame rate                               : 0.055 FPS
Count of elements                        : 245
Stream size                              : 9.12 KiB (0%)
Title                                    : Espa?ol (Espa?a)
Language                                 : Spanish
Default                                  : No
Forced                                   : No
Text #8
ID                                       : 10
Format                                   : UTF-8
Codec ID                                 : S_TEXT/UTF8
Codec ID/Info                            : UTF-8 Plain Text
Duration                                 : 1 h 14 min
Bit rate                                 : 17 b/s
Frame rate                               : 0.059 FPS
Count of elements                        : 266
Stream size                              : 9.51 KiB (0%)
Title                                    : Suomi
Language                                 : Finnish
Default                                  : No
Forced                                   : No
Text #9
ID                                       : 11
Format                                   : UTF-8
Codec ID                                 : S_TEXT/UTF8
Codec ID/Info                            : UTF-8 Plain Text
Duration                                 : 1 h 14 min
Bit rate                                 : 18 b/s
Frame rate                               : 0.070 FPS
Count of elements                        : 315
Stream size                              : 10.0 KiB (0%)
Title                                    : Fran?ais (France)
Language                                 : French
Default                                  : No
Forced                                   : No
Text #10
ID                                       : 12
Format                                   : UTF-8
Codec ID                                 : S_TEXT/UTF8
Codec ID/Info                            : UTF-8 Plain Text
Duration                                 : 1 h 14 min
Bit rate                                 : 25 b/s
Frame rate                               : 0.059 FPS
Count of elements                        : 266
Stream size                              : 14.2 KiB (0%)
Title                                    : ?????
Language                                 : Hebrew
Default                                  : No
Forced                                   : No
Text #11
ID                                       : 13
Format                                   : UTF-8
Codec ID                                 : S_TEXT/UTF8
Codec ID/Info                            : UTF-8 Plain Text
Duration                                 : 1 h 14 min
Bit rate                                 : 17 b/s
Frame rate                               : 0.054 FPS
Count of elements                        : 241
Stream size                              : 9.58 KiB (0%)
Title                                    : Italiano (Italia)
Language                                 : Italian
Default                                  : No
Forced                                   : No
Text #12
ID                                       : 14
Format                                   : UTF-8
Codec ID                                 : S_TEXT/UTF8
Codec ID/Info                            : UTF-8 Plain Text
Duration                                 : 1 h 14 min
Bit rate                                 : 18 b/s
Frame rate                               : 0.057 FPS
Count of elements                        : 254
Stream size                              : 9.90 KiB (0%)
Title                                    : 日本語 (日本)
Language                                 : Japanese
Default                                  : No
Forced                                   : No
Text #13
ID                                       : 15
Format                                   : UTF-8
Codec ID                                 : S_TEXT/UTF8
Codec ID/Info                            : UTF-8 Plain Text
Duration                                 : 1 h 15 min
Bit rate                                 : 23 b/s
Frame rate                               : 0.060 FPS
Count of elements                        : 268
Stream size                              : 12.8 KiB (0%)
Title                                    : ???
Language                                 : Korean
Default                                  : No
Forced                                   : No
Text #14
ID                                       : 16
Format                                   : UTF-8
Codec ID                                 : S_TEXT/UTF8
Codec ID/Info                            : UTF-8 Plain Text
Duration                                 : 1 h 14 min
Bit rate                                 : 16 b/s
Frame rate                               : 0.059 FPS
Count of elements                        : 264
Stream size                              : 8.99 KiB (0%)
Title                                    : Norsk
Language                                 : Norwegian
Default                                  : No
Forced                                   : No
Text #15
ID                                       : 17
Format                                   : UTF-8
Codec ID                                 : S_TEXT/UTF8
Codec ID/Info                            : UTF-8 Plain Text
Duration                                 : 1 h 14 min
Bit rate                                 : 17 b/s
Frame rate                               : 0.055 FPS
Count of elements                        : 248
Stream size                              : 9.61 KiB (0%)
Title                                    : Português (Brasil)
Language                                 : Portuguese
Default                                  : No
Forced                                   : No
Text #16
ID                                       : 18
Format                                   : UTF-8
Codec ID                                 : S_TEXT/UTF8
Codec ID/Info                            : UTF-8 Plain Text
Duration                                 : 1 h 14 min
Bit rate                                 : 17 b/s
Frame rate                               : 0.059 FPS
Count of elements                        : 266
Stream size                              : 9.53 KiB (0%)
Title                                    : Português (Portugal)
Language                                 : Portuguese
Default                                  : No
Forced                                   : No
Text #17
ID                                       : 19
Format                                   : UTF-8
Codec ID                                 : S_TEXT/UTF8
Codec ID/Info                            : UTF-8 Plain Text
Duration                                 : 1 h 14 min
Bit rate                                 : 16 b/s
Frame rate                               : 0.059 FPS
Count of elements                        : 266
Stream size                              : 9.29 KiB (0%)
Title                                    : Svenska
Language                                 : Swedish
Default                                  : No
Forced                                   : No
Text #18
ID                                       : 20
Format                                   : UTF-8
Codec ID                                 : S_TEXT/UTF8
Codec ID/Info                            : UTF-8 Plain Text
Duration                                 : 1 h 15 min
Bit rate                                 : 42 b/s
Frame rate                               : 0.060 FPS
Count of elements                        : 268
Stream size                              : 23.5 KiB (0%)
Title                                    : ???
Language                                 : Thai
Default                                  : No
Forced                                   : No
部分资源为软字幕,移动端推荐播放器:MxPlayer,nPlayer,infuse ,其他播放器请自行尝试。
部分资源为软字幕,电脑端推荐播放器:PotPlayer,完美解码,KMPLAYER,其他播放器请自行尝试。






~~~~~~~~~~~~~~~~~~~~~~~~~~~~~~~~~~~~~~~~~
[2019][欧美][其它][WEB-4K]西部明星[HDR/杜比视界双版本][中文字幕].Western.Stars.2020.2160p.iTunes.WEB-DL.DDP5.1.Atmos.DV.H

【文件列表】:


Western.Stars.2020.2160p.iTunes.WEB-DL.DDP5.1.Atmos.DV.HDR.H.265-BATWEB.



【下载地址列表】:


游客
文件下载链接就在这里,在您回复评论成功后才能显示。
请勿回复无意义的灌水内容。


下拉页面到最底部回复或者【点击此处快捷回复】,回复后返回此处即可查看下载链接。
如您没注册本站会员,可以点击注册本站,注册后即可回复下载。



软字幕无法在截图上展现,HDR版本/杜比视界版本截图会出现颜色异常,请使用支持的设备播放!






[img][/img]






[img][/img]

(HDR版本/杜比视界版本,截图会出现颜色异常,请使用支持的设备播放)

小贴士:【影视自媒体解说文案请移步:夏至文案解说网 www.xiazhi.vip

上一篇:[2019][欧美][其它][WEB-1080P]西部明星[中文字幕].Western.Stars.2020.1080p.iTunes.WEB-DL.DDP5.1.Atmos.H264- 4.26G
下一篇:[2019][欧美][其它][WEB-4K]西部明星[中文字幕].Western.Stars.2020.2160p.iTunes.WEB-DL.DDP5.1.Atmos.H.265- 7.42
回复

使用道具 举报

您需要登录后才可以回帖 登录 | 立即注册

本版积分规则

Archiver|手机版|小众纪录片影视聚合

GMT+8, 2024-7-16 23:07 , Processed in 0.203662 second(s), 12 queries , Gzip On, Redis On.

Powered by 小众纪录片影视聚合 @2010-2023

Copyright © 2010-2024, https://www.xzjlp.com/.


免责说明:本站所有内容链接、图文介绍等均来自于互联网网友分享,本站仅支持web页面展示和文字介绍,绝不提供在线观看和存储服务,也不参与录制、上传、压片。若本站收录内容无意侵犯贵司版权,请发邮件到【a885185#163.com】联系本站,我们将在第一时间删除侵权内容。谢谢!

快速回复 返回顶部 返回列表