小众纪录片影视聚合

 找回密码
 立即注册
查看: 5|回复: 0

[蓝光电影] [2007][其它][剧情][WEB-1080P]赎罪[简繁英字幕].Atonement.2007.1080p.iTunes.WEB-DL.DD5.1.H264- 6.02GB

[复制链接]

112万

主题

112万

帖子

112万

积分

超级版主

Rank: 8Rank: 8

积分
1128817
发表于 7 天前 | 显示全部楼层 |阅读模式


[2007][其它][剧情][WEB-1080P]赎罪[简繁英字幕].Atonement.2007.1080p.iTunes.WEB-DL.DD5.1.H264- 6.02GB

完整标题:赎罪[简繁英字幕].Atonement.2007.1080p.iTunes.WEB-DL.DD5.1.H264-BATWEB 6.02GB
◎标  题 赎罪
◎译  名 爱·诱·罪(港) / 救赎
◎片  名 Atonement
◎年  代 2007
◎产  地 英国 / 法国
◎类  别 剧情 / 爱情 / 悬疑 / 战争
◎语  言 英语 / 法语
◎上映日期 2008-02-22(中国大陆) / 2007-08-29(威尼斯电影节) / 2007-09-07(英国)
◎IMDb评分 7.8/10 (294683人评价)
◎IMDb链接 https://www.imdb.com/title/tt0783233/
◎豆瓣评分 8.5/10 (393481人评价)
◎豆瓣链接 https://movie.douban.com/subject/1950148/
◎片  长 123分钟
◎导  演 乔·赖特 Joe Wright
◎编  剧 克里斯托弗·汉普顿 Christopher Hampton
       伊恩·麦克尤恩 Ian McEwan
◎演  员 詹姆斯·麦卡沃伊 James McAvoy
       西尔莎·罗南 Saoirse Ronan
       凯拉·奈特莉 Keira Knightley
       本尼迪克特·康伯巴奇 Benedict Cumberbatch
       布兰达·布莱斯 Brenda Blethyn
       哈丽特·瓦尔特 Harriet Walter
       朱诺·坦普尔 Juno Temple
       阿尔菲·艾伦 Alfie Allen
       帕特里克·肯尼迪 Patrick Kennedy
       彼得·怀特 Peter Wight
       瓦妮莎·雷德格雷夫 Vanessa Redgrave
       萝玛拉·嘉瑞 Romola Garai
       艾丽丝·奥尔尤因 Alice Orr-Ewing
       侬索·阿诺斯 Nonso Anozie
       布隆森·韦伯 Bronson Webb
       杰米·比米什 Jamie Beamish
       约翰尼·哈里斯 Johnny Harris
       尼尔·马斯克尔 Neil Maskell
       杰瑞米·雷乃 Jérémie Renier
       吉娜·麦基 Gina McKee
       托比亚斯·门基斯 Tobias Menzies
       安东尼·明格拉 Anthony Minghella
       丹尼尔·梅斯 Daniel Mays
       伊恩 博纳 Ian Bonar
       奥利维亚·格兰特 Olivia Grant
       利昂尔·阿贝兰斯基 Lionel Abelanski
◎简  介
    1935年夏天,来自一个宽裕的英国小康家庭的13岁的少女布里奥妮(斯奥里兹•罗南 饰)刚刚开始尝试写作,想象力丰富。一天,她暗中发现仆人的儿子——罗比•特纳(詹姆斯•迈克沃伊 饰)和她姐姐塞西利亚(凯特•奈特莉 饰)之间有暧昧关系,而且发现他给她写了一封充满情色意味的情书。布里奥妮丰富的想象力虚构着各种可怕的事情,浮想联翩。当她的表姐罗拉被强奸后,布里奥妮相当肯定她看到是罗比做的,这次指证使罗比蒙冤入狱,留下伤心欲绝的塞西利亚。                                    第二次世界大战爆发了,出狱后的罗比和塞西利亚都投入了保卫祖国的战斗,布利奥妮放弃到剑桥升学成为一名军队医务人员。没有人能理解她的做法,只有她知道她怀揣着巨大的秘密和自责。她鼓起勇气,想把这秘密解开,能真正赎罪和得到宽恕。然而,世事幻变,出乎布利奥妮的预算。
点击图片可查看大图
软字幕无法在截图上展现,HDR版本/杜比视界版本截图会出现颜色异常,请使用支持的设备播放!
##### MediaInfo ######
General
Unique ID                                : 48144167646373647068244357304718443337 (0x24383ABABAE70292F17744D76BF3C349)
Complete name                            : Atonement.2007.1080p.iTunes.WEB-DL.DD5.1.H264-BATWEB.mkv
Duration                                 : 2 h 2 min
Overall bit rate                         : 7 012 kb/s
Video
ID                                       : 1
Format                                   : AVC
Format/Info                              : Advanced Video Codec
Format profile                           : High@L4
Format settings                          : CABAC / 4 Ref Frames
Format settings, CABAC                   : Yes
Format settings, Reference frames        : 4 frames
Codec ID                                 : V_MPEG4/ISO/AVC
Duration                                 : 2 h 2 min
Bit rate                                 : 6 626 kb/s
Width                                    : 1 912 pixels
Height                                   : 1 036 pixels
Display aspect ratio                     : 1.85:1
Frame rate mode                          : Constant
Frame rate                               : 23.976 (23976/1000) FPS
Color space                              : YUV
Chroma subsampling                       : 4:2:0
Bit depth                                : 8 bits
Scan type                                : Progressive
Bits/(Pixel*Frame)                       : 0.140
Stream size                              : 5.69 GiB (94%)
Default                                  : Yes
Forced                                   : No
Color range                              : Limited
Color primaries                          : BT.709
Transfer characteristics                 : BT.709
Matrix coefficients                      : BT.709
Audio
ID                                       : 2
Format                                   : AC-3
Format/Info                              : Audio Coding 3
Commercial name                          : Dolby Digital
Codec ID                                 : A_AC3
Duration                                 : 2 h 2 min
Bit rate mode                            : Constant
Bit rate                                 : 384 kb/s
Channel(s)                               : 6 channels
Channel layout                           : L R C LFE Ls Rs
Sampling rate                            : 48.0 kHz
Frame rate                               : 31.250 FPS (1536 SPF)
Compression mode                         : Lossy
Stream size                              : 338 MiB (5%)
Title                                    : English (United Kingdom) [Dolby Digital 5.1]
Language                                 : English
Service kind                             : Complete Main
Default                                  : Yes
Forced                                   : No
Text #1
ID                                       : 3
Format                                   : UTF-8
Codec ID                                 : S_TEXT/UTF8
Codec ID/Info                            : UTF-8 Plain Text
Duration                                 : 1 h 52 min
Bit rate                                 : 33 b/s
Frame rate                               : 0.130 FPS
Count of elements                        : 875
Stream size                              : 27.4 KiB (0%)
Title                                    : 中文 (繁體)
Language                                 : Chinese
Default                                  : Yes
Forced                                   : No
Text #2
ID                                       : 4
Format                                   : UTF-8
Codec ID                                 : S_TEXT/UTF8
Codec ID/Info                            : UTF-8 Plain Text
Duration                                 : 1 h 53 min
Bit rate                                 : 42 b/s
Frame rate                               : 0.139 FPS
Count of elements                        : 948
Stream size                              : 35.5 KiB (0%)
Title                                    : English (United States)
Language                                 : English
Default                                  : No
Forced                                   : No
Text #3
ID                                       : 5
Format                                   : UTF-8
Codec ID                                 : S_TEXT/UTF8
Codec ID/Info                            : UTF-8 Plain Text
Duration                                 : 1 h 52 min
Bit rate                                 : 34 b/s
Frame rate                               : 0.130 FPS
Count of elements                        : 875
Stream size                              : 28.0 KiB (0%)
Title                                    : 粵語 (繁體)
Language                                 : Chinese
Default                                  : No
Forced                                   : No
Text #4
ID                                       : 6
Format                                   : UTF-8
Codec ID                                 : S_TEXT/UTF8
Codec ID/Info                            : UTF-8 Plain Text
Duration                                 : 1 h 52 min
Bit rate                                 : 33 b/s
Frame rate                               : 0.130 FPS
Count of elements                        : 875
Stream size                              : 27.4 KiB (0%)
Title                                    : 中文(简体)
Language                                 : Chinese
Default                                  : No
Forced                                   : No
Text #5
ID                                       : 7
Format                                   : UTF-8
Codec ID                                 : S_TEXT/UTF8
Codec ID/Info                            : UTF-8 Plain Text
Duration                                 : 1 h 52 min
Bit rate                                 : 40 b/s
Frame rate                               : 0.130 FPS
Count of elements                        : 874
Stream size                              : 33.0 KiB (0%)
Title                                    : Bahasa Indonesia
Language                                 : Indonesian
Default                                  : No
Forced                                   : No
Text #6
ID                                       : 8
Format                                   : UTF-8
Codec ID                                 : S_TEXT/UTF8
Codec ID/Info                            : UTF-8 Plain Text
Duration                                 : 1 h 55 min
Bit rate                                 : 39 b/s
Frame rate                               : 0.126 FPS
Count of elements                        : 877
Stream size                              : 33.2 KiB (0%)
Title                                    : ???
Language                                 : Korean
Default                                  : No
Forced                                   : No
Text #7
ID                                       : 9
Format                                   : UTF-8
Codec ID                                 : S_TEXT/UTF8
Codec ID/Info                            : UTF-8 Plain Text
Duration                                 : 1 h 52 min
Bit rate                                 : 34 b/s
Frame rate                               : 0.130 FPS
Count of elements                        : 875
Stream size                              : 28.0 KiB (0%)
Title                                    : 粤语(简体)
Language                                 : Chinese
Default                                  : No
Forced                                   : No
部分资源为软字幕,移动端推荐播放器:MxPlayer,nPlayer,infuse ,其他播放器请自行尝试。
部分资源为软字幕,电脑端推荐播放器:PotPlayer,完美解码,KMPLAYER,其他播放器请自行尝试。






~~~~~~~~~~~~~~~~~~~~~~~~~~~~~~~~~~~~~~~~~
[2007][其它][剧情][WEB-1080P]赎罪[简繁英字幕].Atonement.2007.1080p.iTunes.WEB-DL.DD5.1.H264- 6.02GB

【文件列表】:


Atonement.2007.1080p.iTunes.WEB-DL.DD5.1.H264-BATWEB.



【下载地址列表】:


游客
文件下载链接就在这里,在您回复评论成功后才能显示。
请勿回复无意义的灌水内容。


下拉页面到最底部回复或者【点击此处快捷回复】,回复后返回此处即可查看下载链接。
如您没注册本站会员,可以点击注册本站,注册后即可回复下载。



软字幕无法在截图上展现,HDR版本/杜比视界版本截图会出现颜色异常,请使用支持的设备播放!






[img][/img]






[img][/img]

(HDR版本/杜比视界版本,截图会出现颜色异常,请使用支持的设备播放)

小贴士:【影视自媒体解说文案请移步:夏至文案解说网 www.xiazhi.vip

上一篇:[更 早][欧美][剧情][WEB-4K]好人寥寥[中文字幕].A.Few.Good.Men.1992.2160p.iTunes.WEB-DL.DD5.1.H.265- 11.92GB
下一篇:[2011][欧美][其它][WEB-1080P]天生狂野[中文字幕].Born.to.Be.Wild.2014.1080p.iTunes.WEB-DL.DD5.1.H264- 2.92GB
回复

使用道具 举报

您需要登录后才可以回帖 登录 | 立即注册

本版积分规则

Archiver|手机版|小众纪录片影视聚合

GMT+8, 2024-7-16 23:14 , Processed in 0.113801 second(s), 12 queries , Gzip On, Redis On.

Powered by 小众纪录片影视聚合 @2010-2023

Copyright © 2010-2024, https://www.xzjlp.com/.


免责说明:本站所有内容链接、图文介绍等均来自于互联网网友分享,本站仅支持web页面展示和文字介绍,绝不提供在线观看和存储服务,也不参与录制、上传、压片。若本站收录内容无意侵犯贵司版权,请发邮件到【a885185#163.com】联系本站,我们将在第一时间删除侵权内容。谢谢!

快速回复 返回顶部 返回列表