小众纪录片影视聚合

 找回密码
 立即注册
查看: 6|回复: 0

[蓝光电影] [2023][其它][剧情][BD-1080P]老橡树酒馆[简繁英字幕].The.Old.Oak.2023.FRA.1080p.BluRay.x264.DTS- 12.12GB

[复制链接]

112万

主题

112万

帖子

112万

积分

超级版主

Rank: 8Rank: 8

积分
1128817
发表于 7 天前 | 显示全部楼层 |阅读模式


[2023][其它][剧情][BD-1080P]老橡树酒馆[简繁英字幕].The.Old.Oak.2023.FRA.1080p.BluRay.x264.DTS- 12.12GB

完整标题:老橡树酒馆[简繁英字幕].The.Old.Oak.2023.FRA.1080p.BluRay.x264.DTS-SONYHD 12.12GB
◎标  题 老橡树酒馆
◎译  名 老橡树
◎片  名 The Old Oak
◎年  代 2023
◎产  地 英国 / 法国 / 比利时
◎类  别 剧情
◎语  言 英语
◎上映日期 2023-05-26(戛纳电影节) / 2023-09-29(英国)
◎IMDb评分 7.2/10 (1451人评价)
◎IMDb链接 https://www.imdb.com/title/tt19883634/
◎豆瓣评分 6.4/10 (461人评价)
◎豆瓣链接 https://movie.douban.com/subject/35884587/
◎片  长 113分钟
◎导  演 肯·洛奇 Ken Loach
◎编  剧 保罗·拉弗蒂 Paul Laverty
◎演  员 黛比·哈尼伍德 Debbie Honeywood
       特雷弗·福克斯 Trevor Fox
       戴夫·特纳 Dave Turner
        Lorenzo McGovern Zaini
        Ebla Mari
        Laura Lee Daly
       尼尔·雷珀 Neil Leiper
        Jordan Louis
        Andy Dawson
        Chris Gotts
        Chris McGlade
        Alex White
        Reuben Bainbridge
        Andrea Johnson
        Joe Armstrong
        Col Tait
        Abigail Lawson
        Rob Kirtley
        Jen Patterson
        Jake Jarratt
       马克西·彼得斯 Maxie Peters
◎简  介
    英格兰东北部煤矿工业区的小村庄里,汤米·乔·巴兰坦经营的老橡树酒馆是村里的最后一家酒馆。一天,一辆满载难民的大巴车驶入村庄,这些难民即将在村里安家。即便自己收入微薄,巴兰坦还是热心帮助难民女孩亚拉,两人之间发展出了坚固的友谊,村民也在两人的感召下逐渐放下成见,走向团结。##### MediaInfo ######
General
Unique ID                                : 39969779441954094417332817728940847719 (0x1E11E64645E5001FD8C133D1D71CB267)
Complete name                            : The.Old.Oak.2023.FRA.1080p.BluRay.x264.DTS-SONYHD.mkv
Duration                                 : 1 h 53 min
Overall bit rate                         : 15.3 Mb/s
Video
ID                                       : 1
Format                                   : AVC
Format/Info                              : Advanced Video Codec
Format profile                           : [email protected]
Format settings                          : CABAC / 4 Ref Frames
Format settings, CABAC                   : Yes
Format settings, Reference frames        : 4 frames
Codec ID                                 : V_MPEG4/ISO/AVC
Duration                                 : 1 h 53 min
Bit rate                                 : 13.7 Mb/s
Width                                    : 1 920 pixels
Height                                   : 1 036 pixels
Display aspect ratio                     : 1.85:1
Frame rate mode                          : Constant
Frame rate                               : 24.000 FPS
Color space                              : YUV
Chroma subsampling                       : 4:2:0
Bit depth                                : 8 bits
Scan type                                : Progressive
Bits/(Pixel*Frame)                       : 0.287
Stream size                              : 10.8 GiB (89%)
Writing library                          : x264 core 164 r3085+55M 938b6d0 t_mod_New [(8 & 10)-bit@all X86_64]
Encoding settings                        : cabac=1 / ref=4 / deblock=1:-3:-3 / analyse=0x3:0x133 / me=umh / subme=11 / psy=1 / fade_compensate=0.00 / psy_rd=1.00:0.00 / mixed_ref=1 / me_range=48 / chroma_me=1 / trellis=2 / 8x8dct=1 / cqm=0 / deadzone=21,11 / fast_pskip=0 / chroma_qp_offset=-3 / threads=32 / lookahead_threads=8 / sliced_threads=0 / nr=0 / decimate=0 / interlaced=0 / bluray_compat=0 / constrained_intra=0 / fgo=0 / bframes=11 / b_pyramid=2 / b_adapt=2 / b_bias=0 / direct=3 / weightb=1 / open_gop=0 / weightp=2 / keyint=240 / keyint_min=1 / scenecut=40 / intra_refresh=0 / rc_lookahead=72 / rc=crf / mbtree=0 / crf=19.3900 / qcomp=0.60 / qpmin=0:0:0 / qpmax=69:69:69 / qpstep=4 / vbv_maxrate=62500 / vbv_bufsize=78125 / crf_max=0.0 / nal_hrd=none / filler=0 / ip_ratio=1.40 / pb_ratio=1.30 / aq=3:0.70 / aq-sensitivity=10.00 / aq-factor=1.00:1.00:1.00 / aq2=0 / aq3=0
Default                                  : Yes
Forced                                   : No
Audio
ID                                       : 2
ID in the original source medium         : 4352 (0x1100)
Format                                   : DTS
Format/Info                              : Digital Theater Systems
Codec ID                                 : A_DTS
Duration                                 : 1 h 53 min
Bit rate mode                            : Constant
Bit rate                                 : 1 509 kb/s
Channel(s)                               : 6 channels
Channel layout                           : C L R Ls Rs LFE
Sampling rate                            : 48.0 kHz
Frame rate                               : 93.750 FPS (512 SPF)
Bit depth                                : 24 bits
Compression mode                         : Lossy
Stream size                              : 1.19 GiB (10%)
Title                                    : English
Language                                 : English
Default                                  : Yes
Forced                                   : No
Original source medium                   : Blu-ray
Text #1
ID                                       : 3
ID in the original source medium         : 4611 (0x1203)
Format                                   : PGS
Muxing mode                              : zlib
Codec ID                                 : S_HDMV/PGS
Codec ID/Info                            : Picture based subtitle format used on BDs/HD-DVDs
Duration                                 : 1 h 49 min
Bit rate                                 : 63.2 kb/s
Frame rate                               : 0.365 FPS
Count of elements                        : 2401
Stream size                              : 49.6 MiB (0%)
Title                                    : chs&eng
Language                                 : Chinese
Default                                  : Yes
Forced                                   : No
Original source medium                   : Blu-ray
Text #2
ID                                       : 4
ID in the original source medium         : 4612 (0x1204)
Format                                   : PGS
Muxing mode                              : zlib
Codec ID                                 : S_HDMV/PGS
Codec ID/Info                            : Picture based subtitle format used on BDs/HD-DVDs
Duration                                 : 1 h 49 min
Bit rate                                 : 63.4 kb/s
Frame rate                               : 0.365 FPS
Count of elements                        : 2401
Stream size                              : 49.7 MiB (0%)
Title                                    : cht&eng
Language                                 : Chinese
Default                                  : No
Forced                                   : No
Original source medium                   : Blu-ray
Text #3
ID                                       : 5
ID in the original source medium         : 4613 (0x1205)
Format                                   : PGS
Muxing mode                              : zlib
Codec ID                                 : S_HDMV/PGS
Codec ID/Info                            : Picture based subtitle format used on BDs/HD-DVDs
Duration                                 : 1 h 49 min
Bit rate                                 : 36.9 kb/s
Frame rate                               : 0.365 FPS
Count of elements                        : 2401
Stream size                              : 28.9 MiB (0%)
Title                                    : chs
Language                                 : Chinese
Default                                  : No
Forced                                   : No
Original source medium                   : Blu-ray
Text #4
ID                                       : 6
ID in the original source medium         : 4614 (0x1206)
Format                                   : PGS
Muxing mode                              : zlib
Codec ID                                 : S_HDMV/PGS
Codec ID/Info                            : Picture based subtitle format used on BDs/HD-DVDs
Duration                                 : 1 h 49 min
Bit rate                                 : 37.0 kb/s
Frame rate                               : 0.365 FPS
Count of elements                        : 2401
Stream size                              : 29.0 MiB (0%)
Title                                    : cht
Language                                 : Chinese
Default                                  : No
Forced                                   : No
Original source medium                   : Blu-ray
Text #5
ID                                       : 7
ID in the original source medium         : 4615 (0x1207)
Format                                   : PGS
Muxing mode                              : zlib
Codec ID                                 : S_HDMV/PGS
Codec ID/Info                            : Picture based subtitle format used on BDs/HD-DVDs
Duration                                 : 1 h 49 min
Bit rate                                 : 28.6 kb/s
Frame rate                               : 0.332 FPS
Count of elements                        : 2186
Stream size                              : 22.5 MiB (0%)
Title                                    : eng
Language                                 : English
Default                                  : No
Forced                                   : No
Original source medium                   : Blu-ray
Menu
00:00:00.000                             : en:Chapter 01
00:08:24.333                             : en:Chapter 02
00:21:07.625                             : en:Chapter 03
00:30:45.833                             : en:Chapter 04
00:41:41.375                             : en:Chapter 05
00:51:13.500                             : en:Chapter 06
00:58:59.458                             : en:Chapter 07
01:07:39.500                             : en:Chapter 08
01:21:18.500                             : en:Chapter 09
01:31:52.416                             : en:Chapter 10
01:41:06.750                             : en:Chapter 11
01:49:49.958                             : en:Chapter 12
部分资源为软字幕,移动端推荐播放器:MxPlayer,nPlayer,infuse ,其他播放器请自行尝试。
部分资源为软字幕,电脑端推荐播放器:PotPlayer,完美解码,KMPLAYER,其他播放器请自行尝试。






~~~~~~~~~~~~~~~~~~~~~~~~~~~~~~~~~~~~~~~~~
[2023][其它][剧情][BD-1080P]老橡树酒馆[简繁英字幕].The.Old.Oak.2023.FRA.1080p.BluRay.x264.DTS- 12.12GB

【文件列表】:


The.Old.Oak.2023.FRA.1080p.BluRay.x264.DTS-SONYHD.



【下载地址列表】:


游客
文件下载链接就在这里,在您回复评论成功后才能显示。
请勿回复无意义的灌水内容。


下拉页面到最底部回复或者【点击此处快捷回复】,回复后返回此处即可查看下载链接。
如您没注册本站会员,可以点击注册本站,注册后即可回复下载。



软字幕无法在截图上展现,HDR版本/杜比视界版本截图会出现颜色异常,请使用支持的设备播放!






[img][/img]






[img][/img]

(HDR版本/杜比视界版本,截图会出现颜色异常,请使用支持的设备播放)

小贴士:【影视自媒体解说文案请移步:夏至文案解说网 www.xiazhi.vip

上一篇:[2018][欧美][喜剧][WEB-4K]游戏之夜[HDR/杜比视界双版本][中文字幕].Game.Night.2018.2160p.iTunes.WEB-DL.DD5.1.DV.HDR.H.265-B
下一篇:[2023][其它][剧情][BD-1080P]老橡树酒馆[简繁英字幕].The.Old.Oak.2023.FRA.1080p.BluRay.x265.10bit.DTS- 8.04GB
回复

使用道具 举报

您需要登录后才可以回帖 登录 | 立即注册

本版积分规则

Archiver|手机版|小众纪录片影视聚合

GMT+8, 2024-7-16 23:30 , Processed in 0.113811 second(s), 12 queries , Gzip On, Redis On.

Powered by 小众纪录片影视聚合 @2010-2023

Copyright © 2010-2024, https://www.xzjlp.com/.


免责说明:本站所有内容链接、图文介绍等均来自于互联网网友分享,本站仅支持web页面展示和文字介绍,绝不提供在线观看和存储服务,也不参与录制、上传、压片。若本站收录内容无意侵犯贵司版权,请发邮件到【a885185#163.com】联系本站,我们将在第一时间删除侵权内容。谢谢!

快速回复 返回顶部 返回列表