小众纪录片影视聚合

 找回密码
 立即注册
查看: 11|回复: 0

[蓝光电影] [更 早][香港][喜剧][WEB-1080P]半斤八两[国语音轨/简繁英字幕].The.Private.Eyes.1976.1080p.iTunes.WEB-DL.AAC2.0.H264- 6.

[复制链接]

112万

主题

112万

帖子

112万

积分

超级版主

Rank: 8Rank: 8

积分
1128817
发表于 7 天前 | 显示全部楼层 |阅读模式


[更 早][香港][喜剧][WEB-1080P]半斤八两[国语音轨/简繁英字幕].The.Private.Eyes.1976.1080p.iTunes.WEB-DL.AAC2.0.H264- 6.

完整标题:半斤八两[国语音轨/简繁英字幕].The.Private.Eyes.1976.1080p.iTunes.WEB-DL.AAC2.0.H264-BATWEB 6.83GB
◎标  题 半斤八两
◎译  名 The Private Eyes
◎片  名 半斤八兩
◎年  代 1976
◎产  地 中国香港
◎类  别 喜剧
◎语  言 粤语
◎上映日期 1976-12-16(中国香港)
◎IMDb评分 7/10 (863人评价)
◎IMDb链接 https://www.imdb.com/title/tt0074179/
◎豆瓣评分 8.3/10 (27450人评价)
◎豆瓣链接 https://movie.douban.com/subject/1448758/
◎片  长 94分钟
◎导  演 许冠文 Michael Koon Man Hui
◎编  剧 许冠文 Michael Koon Man Hui
◎演  员 许冠文 Michael Koon Man Hui
       许冠杰 Samuel Hui
       许冠英 Ricky Hui
       赵雅芝 Angie Chiu
       吴耀汉 Richard Ng
       卢慧芝 Wai Chi Lo
       石坚 Kien Shih
       朱牧 Mu Zhu
       许冠武 Stanley Hui
       陈任 Joe Chan
       张俊英 Chun Ying Chang
       黎少芳 Siu-Fong Lai
       郑少萍 Siu Ping Cheng
       梁舜燕 Lily Leung
       陈剑云 Kim-Wan Chan
       高雄 Hsiung Kao
       解元 Yuan Chieh
       萧钦芳 Chin-Fang Hsiao
       曾楚霖 Choh-Lam Tsang
       黄虾 Ha Huang
       余慕莲 Mo-Lin Yu
       陈会毅 Billy Chan
       罗利期 Joe Junior
       陈立品 Maria Chan
       余袁稳 Yu Yuen Yin
       尹灵光 Leng-Kuang Yin
       郭利民 Ray Cordeiro
       黄志强 Wong Chi-Keung
◎简  介
    万能私家侦探社是一家连同社长黄若思(许冠文)在内只有三名工作人员的小侦探社,由于生意不咸不淡,加上黄若思为人小气刻薄,员工河豚(许冠英)和积琪(赵雅芝),尤其前者没少遭罪。原在汽水厂上班的李国杰(许冠杰)因工作偷懒被老板解雇,一身好功夫的他来到万能求职,黄若思起初不肯雇用,随后见他的确有两把刷子,应了下来,薪水自然苛刻。                                    李国杰没来之前,黄若思与河豚搭档侦探的,无非一些风流、偷窃、欺诈事务,这些案件不是每一都能侦破,而侦破的过程常常充满尴尬,远称不上完美,但其时香港社会的百态却一览无遗。他来之后,三人的合作亦是如此。更要命的,是他们常被警探(吴耀汉)误视作不法分子。                                    几件不大不小的案子,尤其八十岁老翁的娇妻(卢慧芝)在外与人(吴耀汉)偷情一案办过,李国杰显现出比黄若思更强的工作能力,更得客户青睐。某日,黄若思与李国杰受委托来到某家先前被劫匪威胁、现有劫匪出入的戏院,捕捉劫匪的过程中,黄若思被匪首(石坚)的几声枪响吓破胆且负伤,李国杰却凭机智将劫匪制服并收获意外好处,两人身份一时对调。
点击图片可查看大图
软字幕无法在截图上展现,HDR版本/杜比视界版本截图会出现颜色异常,请使用支持的设备播放!
##### MediaInfo ######
General
Unique ID                                : 148652242379630789070896310384997054152 (0x6FD56167C9A422EB75C5C2A0F0B636C8)
Complete name                            : The.Private.Eyes.1976.1080p.iTunes.WEB-DL.AAC2.0.H264-BATWEB.mkv
Duration                                 : 1 h 36 min
Overall bit rate                         : 10.1 Mb/s
Video
ID                                       : 1
Format                                   : AVC
Format/Info                              : Advanced Video Codec
Format profile                           : High@L4
Format settings                          : CABAC / 5 Ref Frames
Format settings, CABAC                   : Yes
Format settings, Reference frames        : 5 frames
Codec ID                                 : V_MPEG4/ISO/AVC
Duration                                 : 1 h 36 min
Bit rate                                 : 9 818 kb/s
Width                                    : 1 920 pixels
Height                                   : 816 pixels
Display aspect ratio                     : 2.35:1
Frame rate mode                          : Constant
Frame rate                               : 23.976 (23976/1000) FPS
Color space                              : YUV
Chroma subsampling                       : 4:2:0
Bit depth                                : 8 bits
Scan type                                : Progressive
Bits/(Pixel*Frame)                       : 0.261
Stream size                              : 6.63 GiB (97%)
Default                                  : Yes
Forced                                   : No
Color range                              : Limited
Color primaries                          : BT.709
Transfer characteristics                 : BT.709
Matrix coefficients                      : BT.709
Audio #1
ID                                       : 2
Format                                   : AAC LC
Format/Info                              : Advanced Audio Codec Low Complexity
Codec ID                                 : A_AAC-2
Duration                                 : 1 h 36 min
Bit rate                                 : 132 kb/s
Channel(s)                               : 2 channels
Channel layout                           : L R
Sampling rate                            : 48.0 kHz
Frame rate                               : 46.875 FPS (1024 SPF)
Compression mode                         : Lossy
Stream size                              : 90.6 MiB (1%)
Title                                    : 中文 [AAC 2.0]
Language                                 : Chinese
Default                                  : No
Forced                                   : No
Audio #2
ID                                       : 3
Format                                   : AAC LC
Format/Info                              : Advanced Audio Codec Low Complexity
Codec ID                                 : A_AAC-2
Duration                                 : 1 h 36 min
Bit rate                                 : 163 kb/s
Channel(s)                               : 2 channels
Channel layout                           : L R
Sampling rate                            : 48.0 kHz
Frame rate                               : 46.875 FPS (1024 SPF)
Compression mode                         : Lossy
Stream size                              : 113 MiB (2%)
Title                                    : 粵語 [AAC 2.0]
Language                                 : Chinese
Default                                  : Yes
Forced                                   : No
Text #1
ID                                       : 4
Format                                   : UTF-8
Codec ID                                 : S_TEXT/UTF8
Codec ID/Info                            : UTF-8 Plain Text
Duration                                 : 1 h 34 min
Bit rate                                 : 33 b/s
Frame rate                               : 0.150 FPS
Count of elements                        : 854
Stream size                              : 23.1 KiB (0%)
Title                                    : 中文(简体)
Language                                 : Chinese
Default                                  : Yes
Forced                                   : No
Text #2
ID                                       : 5
Format                                   : UTF-8
Codec ID                                 : S_TEXT/UTF8
Codec ID/Info                            : UTF-8 Plain Text
Duration                                 : 1 h 34 min
Bit rate                                 : 33 b/s
Frame rate                               : 0.150 FPS
Count of elements                        : 854
Stream size                              : 23.1 KiB (0%)
Title                                    : 中文 (繁體)
Language                                 : Chinese
Default                                  : No
Forced                                   : No
Text #3
ID                                       : 6
Format                                   : UTF-8
Codec ID                                 : S_TEXT/UTF8
Codec ID/Info                            : UTF-8 Plain Text
Duration                                 : 1 h 34 min
Bit rate                                 : 28 b/s
Frame rate                               : 0.150 FPS
Count of elements                        : 854
Stream size                              : 19.6 KiB (0%)
Title                                    : English
Language                                 : English
Default                                  : No
Forced                                   : No
部分资源为软字幕,移动端推荐播放器:MxPlayer,nPlayer,infuse ,其他播放器请自行尝试。
部分资源为软字幕,电脑端推荐播放器:PotPlayer,完美解码,KMPLAYER,其他播放器请自行尝试。






~~~~~~~~~~~~~~~~~~~~~~~~~~~~~~~~~~~~~~~~~
[更 早][香港][喜剧][WEB-1080P]半斤八两[国语音轨/简繁英字幕].The.Private.Eyes.1976.1080p.iTunes.WEB-DL.AAC2.0.H264- 6.

【文件列表】:


The.Private.Eyes.1976.1080p.iTunes.WEB-DL.AAC2.0.H264-BATWEB.



【下载地址列表】:


游客
文件下载链接就在这里,在您回复评论成功后才能显示。
请勿回复无意义的灌水内容。


下拉页面到最底部回复或者【点击此处快捷回复】,回复后返回此处即可查看下载链接。
如您没注册本站会员,可以点击注册本站,注册后即可回复下载。



软字幕无法在截图上展现,HDR版本/杜比视界版本截图会出现颜色异常,请使用支持的设备播放!






[img][/img]






[img][/img]

(HDR版本/杜比视界版本,截图会出现颜色异常,请使用支持的设备播放)

小贴士:【影视自媒体解说文案请移步:夏至文案解说网 www.xiazhi.vip

上一篇:[2023][其它][剧情][BD-1080P]老橡树酒馆[简繁英字幕].The.Old.Oak.2023.FRA.1080p.BluRay.x265.10bit.DTS- 8.04GB
下一篇:[更 早][欧美][剧情][WEB-1080P]末路狂花[简繁英字幕].Thelma.&.Louise.1991.1080p.iTunes.WEB-DL.DD5.1.H264- 6.29G
回复

使用道具 举报

您需要登录后才可以回帖 登录 | 立即注册

本版积分规则

Archiver|手机版|小众纪录片影视聚合

GMT+8, 2024-7-16 23:19 , Processed in 0.097235 second(s), 12 queries , Gzip On, Redis On.

Powered by 小众纪录片影视聚合 @2010-2023

Copyright © 2010-2024, https://www.xzjlp.com/.


免责说明:本站所有内容链接、图文介绍等均来自于互联网网友分享,本站仅支持web页面展示和文字介绍,绝不提供在线观看和存储服务,也不参与录制、上传、压片。若本站收录内容无意侵犯贵司版权,请发邮件到【a885185#163.com】联系本站,我们将在第一时间删除侵权内容。谢谢!

快速回复 返回顶部 返回列表