小众纪录片影视聚合

 找回密码
 立即注册
查看: 9|回复: 0

[蓝光电影] [2021][欧美][动作][WEB-4K]毒液2[简繁英字幕].Venom.Let.There.Be.Carnage.2021.2160p.iTunes.WEB-DL.DDP5.1.Atmos.H.26

[复制链接]

113万

主题

113万

帖子

113万

积分

超级版主

Rank: 8Rank: 8

积分
1134597
发表于 2024-7-9 21:22:10 | 显示全部楼层 |阅读模式


[2021][欧美][动作][WEB-4K]毒液2[简繁英字幕].Venom.Let.There.Be.Carnage.2021.2160p.iTunes.WEB-DL.DDP5.1.Atmos.H.26

完整标题:毒液2[简繁英字幕].Venom.Let.There.Be.Carnage.2021.2160p.iTunes.WEB-DL.DDP5.1.Atmos.H.265-BATWEB 14.39GB
◎标  题 毒液2
◎译  名 毒魔:血战大屠杀(港) / 猛毒2:血蜘蛛(台) / 毒液2:屠杀开始 / 毒液:屠杀开始 / 毒液:放纵屠杀 / 毒液2:屠杀将至 / Venom 2
◎片  名 Venom: Let There Be Carnage
◎年  代 2021
◎产  地 美国 / 中国大陆
◎类  别 动作 / 科幻 / 惊悚
◎语  言 英语 / 西班牙语 / 汉语普通话 / 日语
◎上映日期 2021-10-01(美国)
◎IMDb评分 5.9/10 (253171人评价)
◎IMDb链接 https://www.imdb.com/title/tt7097896/
◎豆瓣评分 5.0/10 (176181人评价)
◎豆瓣链接 https://movie.douban.com/subject/30382416/
◎片  长 97分钟
◎导  演 安迪·瑟金斯 Andy Serkis
◎编  剧 凯莉·马塞尔 Kelly Marcel
       汤姆·哈迪 Tom Hardy
◎演  员 汤姆·哈迪 Tom Hardy
       伍迪·哈里森 Woody Harrelson
       米歇尔·威廉姆斯 Michelle Williams
       娜奥米·哈里斯 Naomie Harris
       瑞德·斯科特 Reid Scott
       斯蒂芬·格拉汉姆 Stephen Graham
       佩吉·陆 Peggy Lu
       西安·韦伯 Sian Webber
       米歇尔·格里尼奇 Michelle Greenidge
       罗布·鲍恩 Rob Bowen
       劳伦斯·斯佩尔曼 Laurence Spellman
       小西姆兹 Little Simz
       杰克·班戴拉 Jack Bandeira
       奥卢米德·奥洛伦费米 Olumide Olorunfemi
       斯克鲁比斯·皮普 Scroobius Pip
       阿姆·阿勒卡迪 Amrou Al-Kadhi
       斯图尔特·亚历山大 Stewart Alexander
       肖恩·德兰尼 Sean Delaney
       艾玛·刘 Emma Lau
       克里斯托弗戈德温 Christopher Godwin
       洛基·卡佩拉 Rocky Capella
       格雷戈·洛基特 Greg Lockett
       桑尼·阿什本·瑟金斯 Sonny Ashbourne Serkis
       里斯·谢尔史密斯 Reece Shearsmith
       雷切尔·汉德肖 Rachel Handshaw
       阿曼达·福斯特 Amanda Foster
       小田部阿基 Akie Kotabe
       埃里克·西格蒙德森 Eric Sigmundsson
       何塞‧帕尔马 Jose Palma
       贾马尔·阿贾拉 Jamal Ajala
       詹姆斯·D·韦斯顿二世 James D. Weston II
       罗茜·马塞尔 Rosie Marcel
       艾略特·凯博尔 Elliot Cable
       汤姆·赫兰德 Tom Holland
       威廉·W·巴伯 William W. Barbour
       埃尔文·费利西达 Erwin Felicilda
       露丝·霍洛克斯 Ruth Horrocks
       约翰·洛巴托 John Lobato
       迪索·拉莫斯 Diezel Ramos
       迈克尔·安德鲁·里德 Michael Andrew Reed
       里克·理查森 Rick Richardson
       安珀·西耶娜 Amber Sienna
       艾蒂安·维克 Etienne Vick
       杰茜·维宁 Jessie Vinning
       中川翔子 Shôko Nakagawa
       诹访部顺一 Junichi Suwabe
       西蒙·康诺利 Simon Connolly
◎简  介
    电影讲述了外星共生体“毒液”与宿主埃迪(汤姆·哈迪 饰)这对“最佳拍档”遇上致命反派共生体“卡内奇”(伍迪·哈里森 饰),超级英雄和邪恶反派的宿命之战即将开始。
点击图片可查看大图
软字幕无法在截图上展现,HDR版本/杜比视界版本截图会出现颜色异常,请使用支持的设备播放!
##### MediaInfo ######
General
Unique ID                                : 151484271611998727506953760397290608104 (0x71F6CF3A16E25416B6E9D01C635F95E8)
Complete name                            : Venom.Let.There.Be.Carnage.2021.2160p.iTunes.WEB-DL.DDP5.1.Atmos.H.265-BATWEB.mkv
Duration                                 : 1 h 37 min
Overall bit rate                         : 21.2 Mb/s
Video
ID                                       : 1
Format                                   : HEVC
Format/Info                              : High Efficiency Video Coding
Format profile                           : Main 10@L5@High
Codec ID                                 : V_MPEGH/ISO/HEVC
Duration                                 : 1 h 37 min
Bit rate                                 : 20.4 Mb/s
Width                                    : 3 840 pixels
Height                                   : 2 068 pixels
Display aspect ratio                     : 1.85:1
Frame rate mode                          : Constant
Frame rate                               : 23.976 (24000/1001) FPS
Color space                              : YUV
Chroma subsampling                       : 4:2:0
Bit depth                                : 10 bits
Bits/(Pixel*Frame)                       : 0.107
Stream size                              : 13.9 GiB (96%)
Default                                  : Yes
Forced                                   : No
Color range                              : Limited
Color primaries                          : BT.709
Transfer characteristics                 : BT.709
Matrix coefficients                      : BT.709
Audio
ID                                       : 2
Format                                   : E-AC-3 JOC
Format/Info                              : Enhanced AC-3 with Joint Object Coding
Commercial name                          : Dolby Digital Plus with Dolby Atmos
Codec ID                                 : A_EAC3
Duration                                 : 1 h 37 min
Bit rate mode                            : Constant
Bit rate                                 : 768 kb/s
Channel(s)                               : 6 channels
Channel layout                           : L R C LFE Ls Rs
Sampling rate                            : 48.0 kHz
Frame rate                               : 31.250 FPS (1536 SPF)
Compression mode                         : Lossy
Stream size                              : 534 MiB (4%)
Title                                    : English [Dolby Digital Plus with Dolby Atmos 5.1]
Language                                 : English
Service kind                             : Complete Main
Default                                  : Yes
Forced                                   : No
Complexity index                         : 16
Number of dynamic objects                : 15
Bed channel count                        : 1 channel
Bed channel configuration                : LFE
Text #1
ID                                       : 3
Format                                   : UTF-8
Codec ID                                 : S_TEXT/UTF8
Codec ID/Info                            : UTF-8 Plain Text
Duration                                 : 1 h 27 min
Bit rate                                 : 43 b/s
Frame rate                               : 0.213 FPS
Count of elements                        : 1118
Stream size                              : 27.7 KiB (0%)
Title                                    : 中文(简体)
Language                                 : Chinese
Default                                  : Yes
Forced                                   : No
Text #2
ID                                       : 4
Format                                   : UTF-8
Codec ID                                 : S_TEXT/UTF8
Codec ID/Info                            : UTF-8 Plain Text
Duration                                 : 1 h 27 min
Bit rate                                 : 40 b/s
Frame rate                               : 0.212 FPS
Count of elements                        : 1113
Stream size                              : 26.3 KiB (0%)
Title                                    : 中文 (繁體)
Language                                 : Chinese
Default                                  : No
Forced                                   : No
Text #3
ID                                       : 5
Format                                   : UTF-8
Codec ID                                 : S_TEXT/UTF8
Codec ID/Info                            : UTF-8 Plain Text
Duration                                 : 1 h 27 min
Bit rate                                 : 50 b/s
Frame rate                               : 0.215 FPS
Count of elements                        : 1126
Stream size                              : 32.4 KiB (0%)
Title                                    : English (United Kingdom)
Language                                 : English
Default                                  : No
Forced                                   : No
Text #4
ID                                       : 6
Format                                   : UTF-8
Codec ID                                 : S_TEXT/UTF8
Codec ID/Info                            : UTF-8 Plain Text
Duration                                 : 1 h 27 min
Bit rate                                 : 50 b/s
Frame rate                               : 0.215 FPS
Count of elements                        : 1126
Stream size                              : 32.4 KiB (0%)
Title                                    : English (United States)
Language                                 : English
Default                                  : No
Forced                                   : No
Text #5
ID                                       : 7
Format                                   : UTF-8
Codec ID                                 : S_TEXT/UTF8
Codec ID/Info                            : UTF-8 Plain Text
Duration                                 : 1 h 27 min
Bit rate                                 : 42 b/s
Frame rate                               : 0.214 FPS
Count of elements                        : 1126
Stream size                              : 27.5 KiB (0%)
Title                                    : 粵語 (繁體)
Language                                 : Chinese
Default                                  : No
Forced                                   : No
Text #6
ID                                       : 8
Format                                   : UTF-8
Codec ID                                 : S_TEXT/UTF8
Codec ID/Info                            : UTF-8 Plain Text
Duration                                 : 1 h 27 min
Bit rate                                 : 71 b/s
Frame rate                               : 0.211 FPS
Count of elements                        : 1110
Stream size                              : 46.2 KiB (0%)
Title                                    : ???????
Language                                 : Arabic
Default                                  : No
Forced                                   : No
Text #7
ID                                       : 9
Format                                   : UTF-8
Codec ID                                 : S_TEXT/UTF8
Codec ID/Info                            : UTF-8 Plain Text
Duration                                 : 1 h 27 min
Bit rate                                 : 75 b/s
Frame rate                               : 0.213 FPS
Count of elements                        : 1120
Stream size                              : 48.6 KiB (0%)
Title                                    : Български
Language                                 : Bulgarian
Default                                  : No
Forced                                   : No
Text #8
ID                                       : 10
Format                                   : UTF-8
Codec ID                                 : S_TEXT/UTF8
Codec ID/Info                            : UTF-8 Plain Text
Duration                                 : 1 h 27 min
Bit rate                                 : 48 b/s
Frame rate                               : 0.211 FPS
Count of elements                        : 1110
Stream size                              : 30.9 KiB (0%)
Title                                    : ?e?tina
Language                                 : Czech
Default                                  : No
Forced                                   : No
Text #9
ID                                       : 11
Format                                   : UTF-8
Codec ID                                 : S_TEXT/UTF8
Codec ID/Info                            : UTF-8 Plain Text
Duration                                 : 1 h 27 min
Bit rate                                 : 43 b/s
Frame rate                               : 0.148 FPS
Count of elements                        : 778
Stream size                              : 28.1 KiB (0%)
Title                                    : Dansk
Language                                 : Danish
Default                                  : No
Forced                                   : No
Text #10
ID                                       : 12
Format                                   : UTF-8
Codec ID                                 : S_TEXT/UTF8
Codec ID/Info                            : UTF-8 Plain Text
Duration                                 : 1 h 27 min
Bit rate                                 : 53 b/s
Frame rate                               : 0.218 FPS
Count of elements                        : 1145
Stream size                              : 34.4 KiB (0%)
Title                                    : Deutsch (Deutschland)
Language                                 : German
Default                                  : No
Forced                                   : No
Text #11
ID                                       : 13
Format                                   : UTF-8
Codec ID                                 : S_TEXT/UTF8
Codec ID/Info                            : UTF-8 Plain Text
Duration                                 : 1 h 27 min
Bit rate                                 : 87 b/s
Frame rate                               : 0.210 FPS
Count of elements                        : 1105
Stream size                              : 55.9 KiB (0%)
Title                                    : Ελληνικ?
Language                                 : Greek
Default                                  : No
Forced                                   : No
Text #12
ID                                       : 14
Format                                   : UTF-8
Codec ID                                 : S_TEXT/UTF8
Codec ID/Info                            : UTF-8 Plain Text
Duration                                 : 1 h 27 min
Bit rate                                 : 47 b/s
Frame rate                               : 0.207 FPS
Count of elements                        : 1086
Stream size                              : 30.4 KiB (0%)
Title                                    : Espa?ol (Latinoamérica)
Language                                 : Spanish
Default                                  : No
Forced                                   : No
Text #13
ID                                       : 15
Format                                   : UTF-8
Codec ID                                 : S_TEXT/UTF8
Codec ID/Info                            : UTF-8 Plain Text
Duration                                 : 1 h 27 min
Bit rate                                 : 49 b/s
Frame rate                               : 0.209 FPS
Count of elements                        : 1098
Stream size                              : 32.0 KiB (0%)
Title                                    : Espa?ol (Espa?a)
Language                                 : Spanish
Default                                  : No
Forced                                   : No
Text #14
ID                                       : 16
Format                                   : UTF-8
Codec ID                                 : S_TEXT/UTF8
Codec ID/Info                            : UTF-8 Plain Text
Duration                                 : 1 h 27 min
Bit rate                                 : 46 b/s
Frame rate                               : 0.216 FPS
Count of elements                        : 1136
Stream size                              : 30.0 KiB (0%)
Title                                    : Suomi
Language                                 : Finnish
Default                                  : No
Forced                                   : No
Text #15
ID                                       : 17
Format                                   : UTF-8
Codec ID                                 : S_TEXT/UTF8
Codec ID/Info                            : UTF-8 Plain Text
Duration                                 : 1 h 27 min
Bit rate                                 : 49 b/s
Frame rate                               : 0.201 FPS
Count of elements                        : 1055
Stream size                              : 31.4 KiB (0%)
Title                                    : Fran?ais (France)
Language                                 : French
Default                                  : No
Forced                                   : No
Text #16
ID                                       : 18
Format                                   : UTF-8
Codec ID                                 : S_TEXT/UTF8
Codec ID/Info                            : UTF-8 Plain Text
Duration                                 : 1 h 27 min
Bit rate                                 : 69 b/s
Frame rate                               : 0.223 FPS
Count of elements                        : 1171
Stream size                              : 44.8 KiB (0%)
Title                                    : ?????
Language                                 : Hebrew
Default                                  : No
Forced                                   : No
Text #17
ID                                       : 19
Format                                   : UTF-8
Codec ID                                 : S_TEXT/UTF8
Codec ID/Info                            : UTF-8 Plain Text
Duration                                 : 1 h 27 min
Bit rate                                 : 49 b/s
Frame rate                               : 0.218 FPS
Count of elements                        : 1147
Stream size                              : 31.6 KiB (0%)
Title                                    : Magyar
Language                                 : Hungarian
Default                                  : No
Forced                                   : No
Text #18
ID                                       : 20
Format                                   : UTF-8
Codec ID                                 : S_TEXT/UTF8
Codec ID/Info                            : UTF-8 Plain Text
Duration                                 : 1 h 27 min
Bit rate                                 : 46 b/s
Frame rate                               : 0.209 FPS
Count of elements                        : 1098
Stream size                              : 29.7 KiB (0%)
Title                                    : Bahasa Indonesia
Language                                 : Indonesian
Default                                  : No
Forced                                   : No
Text #19
ID                                       : 21
Format                                   : UTF-8
Codec ID                                 : S_TEXT/UTF8
Codec ID/Info                            : UTF-8 Plain Text
Duration                                 : 1 h 27 min
Bit rate                                 : 50 b/s
Frame rate                               : 0.201 FPS
Count of elements                        : 1056
Stream size                              : 32.2 KiB (0%)
Title                                    : Italiano (Italia)
Language                                 : Italian
Default                                  : No
Forced                                   : No
Text #20
ID                                       : 22
Format                                   : UTF-8
Codec ID                                 : S_TEXT/UTF8
Codec ID/Info                            : UTF-8 Plain Text
Duration                                 : 1 h 35 min
Bit rate                                 : 42 b/s
Frame rate                               : 0.192 FPS
Count of elements                        : 1102
Stream size                              : 30.0 KiB (0%)
Title                                    : 日本語 (日本)
Language                                 : Japanese
Default                                  : No
Forced                                   : No
Text #21
ID                                       : 23
Format                                   : UTF-8
Codec ID                                 : S_TEXT/UTF8
Codec ID/Info                            : UTF-8 Plain Text
Duration                                 : 1 h 27 min
Bit rate                                 : 50 b/s
Frame rate                               : 0.214 FPS
Count of elements                        : 1124
Stream size                              : 32.2 KiB (0%)
Title                                    : ???
Language                                 : Korean
Default                                  : No
Forced                                   : No
Text #22
ID                                       : 24
Format                                   : UTF-8
Codec ID                                 : S_TEXT/UTF8
Codec ID/Info                            : UTF-8 Plain Text
Duration                                 : 1 h 27 min
Bit rate                                 : 48 b/s
Frame rate                               : 0.210 FPS
Count of elements                        : 1103
Stream size                              : 31.0 KiB (0%)
Title                                    : Bahasa Malaysia
Language                                 : Malay
Default                                  : No
Forced                                   : No
Text #23
ID                                       : 25
Format                                   : UTF-8
Codec ID                                 : S_TEXT/UTF8
Codec ID/Info                            : UTF-8 Plain Text
Duration                                 : 1 h 27 min
Bit rate                                 : 44 b/s
Frame rate                               : 0.164 FPS
Count of elements                        : 862
Stream size                              : 28.4 KiB (0%)
Title                                    : Nederlands
Language                                 : Dutch
Default                                  : No
Forced                                   : No
Text #24
ID                                       : 26
Format                                   : UTF-8
Codec ID                                 : S_TEXT/UTF8
Codec ID/Info                            : UTF-8 Plain Text
Duration                                 : 1 h 27 min
Bit rate                                 : 46 b/s
Frame rate                               : 0.178 FPS
Count of elements                        : 935
Stream size                              : 29.7 KiB (0%)
Title                                    : Norsk
Language                                 : Norwegian
Default                                  : No
Forced                                   : No
Text #25
ID                                       : 27
Format                                   : UTF-8
Codec ID                                 : S_TEXT/UTF8
Codec ID/Info                            : UTF-8 Plain Text
Duration                                 : 1 h 27 min
Bit rate                                 : 48 b/s
Frame rate                               : 0.202 FPS
Count of elements                        : 1062
Stream size                              : 31.0 KiB (0%)
Title                                    : Polski
Language                                 : Polish
Default                                  : No
Forced                                   : No
Text #26
ID                                       : 28
Format                                   : UTF-8
Codec ID                                 : S_TEXT/UTF8
Codec ID/Info                            : UTF-8 Plain Text
Duration                                 : 1 h 27 min
Bit rate                                 : 48 b/s
Frame rate                               : 0.205 FPS
Count of elements                        : 1076
Stream size                              : 31.3 KiB (0%)
Title                                    : Português (Brasil)
Language                                 : Portuguese
Default                                  : No
Forced                                   : No
Text #27
ID                                       : 29
Format                                   : UTF-8
Codec ID                                 : S_TEXT/UTF8
Codec ID/Info                            : UTF-8 Plain Text
Duration                                 : 1 h 27 min
Bit rate                                 : 49 b/s
Frame rate                               : 0.204 FPS
Count of elements                        : 1072
Stream size                              : 32.0 KiB (0%)
Title                                    : Português (Portugal)
Language                                 : Portuguese
Default                                  : No
Forced                                   : No
Text #28
ID                                       : 30
Format                                   : UTF-8
Codec ID                                 : S_TEXT/UTF8
Codec ID/Info                            : UTF-8 Plain Text
Duration                                 : 1 h 27 min
Bit rate                                 : 79 b/s
Frame rate                               : 0.206 FPS
Count of elements                        : 1085
Stream size                              : 50.7 KiB (0%)
Title                                    : Русский
Language                                 : Russian
Default                                  : No
Forced                                   : No
Text #29
ID                                       : 31
Format                                   : UTF-8
Codec ID                                 : S_TEXT/UTF8
Codec ID/Info                            : UTF-8 Plain Text
Duration                                 : 1 h 27 min
Bit rate                                 : 44 b/s
Frame rate                               : 0.211 FPS
Count of elements                        : 1111
Stream size                              : 28.8 KiB (0%)
Title                                    : Sloven?ina
Language                                 : Slovak
Default                                  : No
Forced                                   : No
Text #30
ID                                       : 32
Format                                   : UTF-8
Codec ID                                 : S_TEXT/UTF8
Codec ID/Info                            : UTF-8 Plain Text
Duration                                 : 1 h 27 min
Bit rate                                 : 41 b/s
Frame rate                               : 0.187 FPS
Count of elements                        : 985
Stream size                              : 26.5 KiB (0%)
Title                                    : Sloven??ina
Language                                 : Slovenian
Default                                  : No
Forced                                   : No
Text #31
ID                                       : 33
Format                                   : UTF-8
Codec ID                                 : S_TEXT/UTF8
Codec ID/Info                            : UTF-8 Plain Text
Duration                                 : 1 h 27 min
Bit rate                                 : 41 b/s
Frame rate                               : 0.156 FPS
Count of elements                        : 819
Stream size                              : 26.8 KiB (0%)
Title                                    : Svenska
Language                                 : Swedish
Default                                  : No
Forced                                   : No
Text #32
ID                                       : 34
Format                                   : UTF-8
Codec ID                                 : S_TEXT/UTF8
Codec ID/Info                            : UTF-8 Plain Text
Duration                                 : 1 h 27 min
Bit rate                                 : 113 b/s
Frame rate                               : 0.214 FPS
Count of elements                        : 1123
Stream size                              : 72.5 KiB (0%)
Title                                    : ???
Language                                 : Thai
Default                                  : No
Forced                                   : No
Text #33
ID                                       : 35
Format                                   : UTF-8
Codec ID                                 : S_TEXT/UTF8
Codec ID/Info                            : UTF-8 Plain Text
Duration                                 : 1 h 27 min
Bit rate                                 : 53 b/s
Frame rate                               : 0.219 FPS
Count of elements                        : 1149
Stream size                              : 34.1 KiB (0%)
Title                                    : Türk?e
Language                                 : Turkish
Default                                  : No
Forced                                   : No
Text #34
ID                                       : 36
Format                                   : UTF-8
Codec ID                                 : S_TEXT/UTF8
Codec ID/Info                            : UTF-8 Plain Text
Duration                                 : 1 h 27 min
Bit rate                                 : 80 b/s
Frame rate                               : 0.213 FPS
Count of elements                        : 1121
Stream size                              : 51.7 KiB (0%)
Title                                    : Укра?нська
Language                                 : Ukrainian
Default                                  : No
Forced                                   : No
Text #35
ID                                       : 37
Format                                   : UTF-8
Codec ID                                 : S_TEXT/UTF8
Codec ID/Info                            : UTF-8 Plain Text
Duration                                 : 1 h 27 min
Bit rate                                 : 67 b/s
Frame rate                               : 0.212 FPS
Count of elements                        : 1114
Stream size                              : 43.4 KiB (0%)
Title                                    : Ti?ng Vi?t
Language                                 : Vietnamese
Default                                  : No
Forced                                   : No
部分资源为软字幕,移动端推荐播放器:MxPlayer,nPlayer,infuse ,其他播放器请自行尝试。
部分资源为软字幕,电脑端推荐播放器:PotPlayer,完美解码,KMPLAYER,其他播放器请自行尝试。






~~~~~~~~~~~~~~~~~~~~~~~~~~~~~~~~~~~~~~~~~
[2021][欧美][动作][WEB-4K]毒液2[简繁英字幕].Venom.Let.There.Be.Carnage.2021.2160p.iTunes.WEB-DL.DDP5.1.Atmos.H.26

【文件列表】:


Venom.Let.There.Be.Carnage.2021.2160p.iTunes.WEB-DL.DDP5.1.Atmos.H.265-BATW...



【下载地址列表】:


游客
文件下载链接就在这里,在您回复评论成功后才能显示。
请勿回复无意义的灌水内容。


下拉页面到最底部回复或者【点击此处快捷回复】,回复后返回此处即可查看下载链接。
如您没注册本站会员,可以点击注册本站,注册后即可回复下载。



软字幕无法在截图上展现,HDR版本/杜比视界版本截图会出现颜色异常,请使用支持的设备播放!






[img][/img]






[img][/img]

(HDR版本/杜比视界版本,截图会出现颜色异常,请使用支持的设备播放)

小贴士:【影视自媒体解说文案请移步:夏至文案解说网 www.xiazhi.vip

上一篇:[2021][欧美][动作][WEB-4K]毒液2[HDR/杜比视界双版本][简繁英字幕].Venom.Let.There.Be.Carnage.2021.2160p.iTunes.WEB-DL.DDP5
下一篇:[2024][大陆][剧情][WEB-4K]大佬攻略[国语配音/中文字幕].To.Be.a.Bigman.2024.2160p.WEB-DL.H265.EDR.AAC- 8.92GB
回复

使用道具 举报

您需要登录后才可以回帖 登录 | 立即注册

本版积分规则

Archiver|手机版|小众纪录片影视聚合

GMT+8, 2024-7-22 06:23 , Processed in 0.070219 second(s), 13 queries , Gzip On, Redis On.

Powered by 小众纪录片影视聚合 @2010-2023

Copyright © 2010-2024, https://www.xzjlp.com/.


免责说明:本站所有内容链接、图文介绍等均来自于互联网网友分享,本站仅支持web页面展示和文字介绍,绝不提供在线观看和存储服务,也不参与录制、上传、压片。若本站收录内容无意侵犯贵司版权,请发邮件到【a885185#163.com】联系本站,我们将在第一时间删除侵权内容。谢谢!

快速回复 返回顶部 返回列表