小众纪录片影视聚合

 找回密码
 立即注册
查看: 9|回复: 0

[蓝光电影] [2024][大陆][剧情][WEB-1080P]新九品芝麻官[国语配音/中文字幕].The.Judge.2024.1080p.WEB-DL.H264.AAC- 0.88GB

[复制链接]

112万

主题

112万

帖子

112万

积分

超级版主

Rank: 8Rank: 8

积分
1128817
发表于 7 天前 | 显示全部楼层 |阅读模式


[2024][大陆][剧情][WEB-1080P]新九品芝麻官[国语配音/中文字幕].The.Judge.2024.1080p.WEB-DL.H264.AAC- 0.88GB

完整标题:新九品芝麻官[国语配音/中文字幕].The.Judge.2024.1080p.WEB-DL.H264.AAC-DreamHD 0.88GB
◎标  题 新九品芝麻官
◎译  名 The Judge
◎年  代 2024
◎产  地 中国大陆
◎类  别 剧情
◎语  言 汉语普通话
◎上映日期 2024-03-16(中国大陆网络)
◎IMDb链接 https://www.imdb.com/title//
◎豆瓣链接 https://movie.douban.com/subject/36806169/
◎导  演 朱凌锋 Lingfeng Zhu
◎演  员 彭禺厶 Yusi Peng
       林妍柔 Yen-Jou Lin
       刘子豪 Zihao Liu          
       魏璐 Lu Wei
       黄一山 Gabriel Wong
       苑琼丹 King-Tan Yuen
◎简  介
    无心混迹官场“九品芝麻官”包龙星意外卷入了一场惊天惨案,原本清晰的案情一夜之间被有心之人颠倒了黑白,坚信“邪不压正”的包龙星与强与自己数倍的力量展开了信念的较量,最终证明的了自己同时也捍卫了正义。
点击图片可查看大图
软字幕无法在截图上展现,HDR版本/杜比视界版本截图会出现颜色异常,请使用支持的设备播放!
##### MediaInfo ######
General
Unique ID                                : 11386900697155240564085072974479434616 (0x891098CAA795EA8F1166ABA09252378)
Complete name                            : The.Judge.2024.1080p.WEB-DL.H264.AAC-DreamHD.mkv
Duration                                 : 1 h 35 min
Overall bit rate                         : 1 323 kb/s
Video
ID                                       : 1
Format                                   : AVC
Format/Info                              : Advanced Video Codec
Format profile                           : High@L5
Format settings                          : CABAC / 5 Ref Frames
Format settings, CABAC                   : Yes
Format settings, Reference frames        : 5 frames
Codec ID                                 : V_MPEG4/ISO/AVC
Duration                                 : 1 h 35 min
Bit rate                                 : 1 065 kb/s
Width                                    : 1 920 pixels
Height                                   : 808 pixels
Display aspect ratio                     : 2.40:1
Frame rate mode                          : Constant
Frame rate                               : 25.000 FPS
Color space                              : YUV
Chroma subsampling                       : 4:2:0
Bit depth                                : 8 bits
Scan type                                : Progressive
Bits/(Pixel*Frame)                       : 0.027
Stream size                              : 727 MiB (80%)
Default                                  : Yes
Forced                                   : No
Color range                              : Limited
Color primaries                          : BT.709
Transfer characteristics                 : BT.709
Matrix coefficients                      : BT.709
Audio
ID                                       : 2
Format                                   : AAC LC
Format/Info                              : Advanced Audio Codec Low Complexity
Codec ID                                 : A_AAC-2
Duration                                 : 1 h 35 min
Bit rate                                 : 256 kb/s
Channel(s)                               : 2 channels
Channel layout                           : L R
Sampling rate                            : 44.1 kHz
Frame rate                               : 43.066 FPS (1024 SPF)
Compression mode                         : Lossy
Stream size                              : 175 MiB (19%)
Title                                    : Mandarin [AAC2.0]
Language                                 : Chinese
Default                                  : Yes
Forced                                   : No
部分资源为软字幕,移动端推荐播放器:MxPlayer,nPlayer,infuse ,其他播放器请自行尝试。
部分资源为软字幕,电脑端推荐播放器:PotPlayer,完美解码,KMPLAYER,其他播放器请自行尝试。






~~~~~~~~~~~~~~~~~~~~~~~~~~~~~~~~~~~~~~~~~
[2024][大陆][剧情][WEB-1080P]新九品芝麻官[国语配音/中文字幕].The.Judge.2024.1080p.WEB-DL.H264.AAC- 0.88GB

【文件列表】:


The.Judge.2024.1080p.WEB-DL.H264.AAC-DreamHD.



【下载地址列表】:


游客
文件下载链接就在这里,在您回复评论成功后才能显示。
请勿回复无意义的灌水内容。


下拉页面到最底部回复或者【点击此处快捷回复】,回复后返回此处即可查看下载链接。
如您没注册本站会员,可以点击注册本站,注册后即可回复下载。



软字幕无法在截图上展现,HDR版本/杜比视界版本截图会出现颜色异常,请使用支持的设备播放!






[img][/img]






[img][/img]

(HDR版本/杜比视界版本,截图会出现颜色异常,请使用支持的设备播放)

小贴士:【影视自媒体解说文案请移步:夏至文案解说网 www.xiazhi.vip

上一篇:[2024][大陆][喜剧][WEB-4K]废品飞车[国语配音/中文字幕].Flying.Scrap.Car.2024.2160p.WEB-DL.H265.EDR.DDP2.0- 10.12G
下一篇:[2024][大陆][剧情][WEB-4K]新九品芝麻官[60帧率版本][高码版][国语配音/中文字幕].The.Judge.2024.2160p.HQ.WEB-DL.H265.60fps.AAC-Dre
回复

使用道具 举报

您需要登录后才可以回帖 登录 | 立即注册

本版积分规则

Archiver|手机版|小众纪录片影视聚合

GMT+8, 2024-7-16 22:41 , Processed in 0.149359 second(s), 12 queries , Gzip On, Redis On.

Powered by 小众纪录片影视聚合 @2010-2023

Copyright © 2010-2024, https://www.xzjlp.com/.


免责说明:本站所有内容链接、图文介绍等均来自于互联网网友分享,本站仅支持web页面展示和文字介绍,绝不提供在线观看和存储服务,也不参与录制、上传、压片。若本站收录内容无意侵犯贵司版权,请发邮件到【a885185#163.com】联系本站,我们将在第一时间删除侵权内容。谢谢!

快速回复 返回顶部 返回列表