小众纪录片影视聚合

 找回密码
 立即注册
查看: 6|回复: 0

[蓝光电影] [更 早][香港][动作][WEB-4K]疯猴[高码版][国语配音/中文字幕].Mad.Monkey.Kung.Fu.1979.2160p.WEB-DL.H265.HQ.AAC- 15.35

[复制链接]

116万

主题

116万

帖子

116万

积分

超级版主

Rank: 8Rank: 8

积分
1167997
发表于 2024-7-9 21:22:40 | 显示全部楼层 |阅读模式


[更 早][香港][动作][WEB-4K]疯猴[高码版][国语配音/中文字幕].Mad.Monkey.Kung.Fu.1979.2160p.WEB-DL.H265.HQ.AAC- 15.35

完整标题:疯猴[高码版][国语配音/中文字幕].Mad.Monkey.Kung.Fu.1979.2160p.WEB-DL.H265.HQ.AAC-BATWEB 15.35GB
◎标  题 疯猴
◎译  名 Mad Monkey Kung Fu
◎片  名 瘋猴
◎年  代 1979
◎产  地 中国香港
◎类  别 动作
◎语  言 粤语
◎上映日期 1979-10-05
◎IMDb评分 6.7/10 (1136人评价)
◎IMDb链接 https://www.imdb.com/title/tt0079147/
◎豆瓣评分 7.3/10 (1630人评价)
◎豆瓣链接 https://movie.douban.com/subject/1961959/
◎片  长 116分钟
◎导  演 刘家良 Kar-Leung Lau
◎演  员 惠英红 Kara Wai Ying Hung
       罗烈 Lieh Lo
       何其昌 Ho Kei-Cheong
       方茹 Ju Fang
       余袁稳 Yu Yuen Yin
       王清河 Ching-Ho Wang
       林克明 Ke Ming Lin
       李擎柱 King Chu Lee
       彭润祥 Yun-chiang Peng
       西瓜刨 Gwa-pau Sai
       刘家良 Kar-Leung Lau
       小侯 Hou Hsia
       钱似莺 Tsi-Ang Chin
       王憾尘 Han Chen Wang
       张照 Hsi Chang
       金天柱 Tien-Chu Chin
       刘准 Cheun Lau
       周金江 Kam Kong Chow
◎简  介
    陈百兄妹自小在戏班长大,走南闯北,练得一身好武功。陈百(刘家良 饰)为人豪爽、武功高强、当地街坊都对他十分敬仰,却因此成为当地恶霸段长远(罗烈 饰)的心头之患、欲除之而后快。段长远于是计上心头,利用陈百贪杯的个性,一次,趁他酒醉之际,污蔑他奸污了自己的妻子。可怜陈百以为自己真的酒后乱性、懊悔万分,甘愿被段长远关了起来。妹妹翠红(惠英红 饰)为了救出大哥,决定牺牲自己……
点击图片可查看大图
软字幕无法在截图上展现,HDR版本/杜比视界版本截图会出现颜色异常,请使用支持的设备播放!
##### MediaInfo ######
General
Complete name                            : Mad.Monkey.Kung.Fu.1979.2160p.WEB-DL.H265.HQ.AAC-BATWEB.mp4
Duration                                 : 1 h 49 min
Overall bit rate mode                    : Variable
Overall bit rate                         : 20.1 Mb/s
Video
ID                                       : 1
Format                                   : HEVC
Format/Info                              : High Efficiency Video Coding
Format profile                           : Main [email protected]@Main
Codec ID                                 : hev1
Codec ID/Info                            : High Efficiency Video Coding
Duration                                 : 1 h 49 min
Bit rate                                 : 19.8 Mb/s
Width                                    : 3 840 pixels
Height                                   : 1 632 pixels
Display aspect ratio                     : 2.35:1
Frame rate mode                          : Constant
Frame rate                               : 25.000 FPS
Color space                              : YUV
Chroma subsampling                       : 4:2:0
Bit depth                                : 10 bits
Bits/(Pixel*Frame)                       : 0.127
Stream size                              : 15.1 GiB (99%)
Color range                              : Limited
Color primaries                          : BT.709
Transfer characteristics                 : BT.709
Matrix coefficients                      : BT.709
Codec configuration box                  : hvcC
Audio
ID                                       : 2
Format                                   : AAC LC
Format/Info                              : Advanced Audio Codec Low Complexity
Codec ID                                 : mp4a-40-2
Duration                                 : 1 h 49 min
Bit rate mode                            : Variable
Bit rate                                 : 258 kb/s
Channel(s)                               : 2 channels
Channel layout                           : L R
Sampling rate                            : 44.1 kHz
Frame rate                               : 43.066 FPS (1024 SPF)
Compression mode                         : Lossy
Stream size                              : 200 MiB (1%)
Default                                  : Yes
Alternate group                          : 1
部分资源为软字幕,移动端推荐播放器:MxPlayer,nPlayer,infuse ,其他播放器请自行尝试。
部分资源为软字幕,电脑端推荐播放器:PotPlayer,完美解码,KMPLAYER,其他播放器请自行尝试。






~~~~~~~~~~~~~~~~~~~~~~~~~~~~~~~~~~~~~~~~~
[更 早][香港][动作][WEB-4K]疯猴[高码版][国语配音/中文字幕].Mad.Monkey.Kung.Fu.1979.2160p.WEB-DL.H265.HQ.AAC- 15.35

【文件列表】:


Mad.Monkey.Kung.Fu.1979.2160p.WEB-DL.H265.HQ.AAC-BATWEB.



【下载地址列表】:


游客
文件下载链接就在这里,在您回复评论成功后才能显示。
请勿回复无意义的灌水内容。


下拉页面到最底部回复或者【点击此处快捷回复】,回复后返回此处即可查看下载链接。
如您没注册本站会员,可以点击注册本站,注册后即可回复下载。



软字幕无法在截图上展现,HDR版本/杜比视界版本截图会出现颜色异常,请使用支持的设备播放!






[img][/img]






[img][/img]

(HDR版本/杜比视界版本,截图会出现颜色异常,请使用支持的设备播放)

小贴士:【影视自媒体解说文案请移步:夏至文案解说网 www.xiazhi.vip

上一篇:[2024][大陆][剧情][WEB-4K]新九品芝麻官[高码版][国语配音/中文字幕].The.Judge.2024.2160p.HQ.WEB-DL.H265.AAC- 13.38GB
下一篇:[更 早][大陆][剧情][WEB-4K]神话[60帧率版本][国语配音/中文字幕].The.Myth.2005.2160p.WEB-DL.H265.60fps.AAC- 6.10GB
回复

使用道具 举报

您需要登录后才可以回帖 登录 | 立即注册

本版积分规则

Archiver|手机版|小众纪录片影视聚合

GMT+8, 2024-7-24 23:00 , Processed in 0.306100 second(s), 12 queries , Gzip On, Redis On.

Powered by 小众纪录片影视聚合 @2010-2023

Copyright © 2010-2024, https://www.xzjlp.com/.


免责说明:本站所有内容链接、图文介绍等均来自于互联网网友分享,本站仅支持web页面展示和文字介绍,绝不提供在线观看和存储服务,也不参与录制、上传、压片。若本站收录内容无意侵犯贵司版权,请发邮件到【a885185#163.com】联系本站,我们将在第一时间删除侵权内容。谢谢!

快速回复 返回顶部 返回列表