小众纪录片影视聚合

 找回密码
 立即注册
查看: 7|回复: 0

[蓝光电影] [2011][其它][动作][BD-1080P]突袭[简繁英字幕].The.Raid.2011.Repack.1080p.BluRay.x265.10bit.DTS.2Audio- 5.88GB

[复制链接]

109万

主题

109万

帖子

109万

积分

超级版主

Rank: 8Rank: 8

积分
1099615
发表于 4 天前 | 显示全部楼层 |阅读模式


[2011][其它][动作][BD-1080P]突袭[简繁英字幕].The.Raid.2011.Repack.1080p.BluRay.x265.10bit.DTS.2Audio- 5.88GB

完整标题:突袭[简繁英字幕].The.Raid.2011.Repack.1080p.BluRay.x265.10bit.DTS.2Audio-SONYHD 5.88GB
◎标  题 突袭
◎译  名 突击死亡塔(港) / 全面突袭(台) / 突袭:救赎 / The Raid: Redemption / Serbuan maut
◎片  名 The Raid
◎年  代 2011
◎产  地 印度尼西亚 / 法国 / 美国
◎类  别 动作 / 惊悚 / 犯罪
◎语  言 印度尼西亚语
◎上映日期 2011-09-08(多伦多电影节) / 2012-03-23(印度尼西亚)
◎IMDb评分 7.6/10 (209751人评价)
◎IMDb链接 https://www.imdb.com/title/tt1899353/
◎豆瓣评分 7.8/10 (84473人评价)
◎豆瓣链接 https://movie.douban.com/subject/6771529/
◎片  长 101分钟 / 100分钟(国际版)
◎导  演 加雷斯·埃文斯 Gareth Evans
◎编  剧 加雷斯·埃文斯 Gareth Evans
◎演  员 伊科·乌艾斯 Iko Uwais
       乔·塔斯利姆 Joe Taslim
       唐尼·阿兰西亚 Donny Alamsyah
       雅彦·鲁伊安 Yayan Ruhian
       皮埃尔 格伦特 Pierre Gruno
       雷·萨亥塔彼 Ray Sahetapy
       维利·崔·尤里斯曼 Very Tri Yulisman
◎简  介
    《突袭》是由加雷斯·埃文斯执导,由美国和印度尼西亚联合制作,于2012年3月23日在印尼上映。                                    清晨特警Rama(伊科·乌艾斯 Iko Uwais 饰)做完祷告和训练,告别还没有起床的妻子去迎接一项特殊的任务。在雅加达的贫民窟的深处,世界上最危险的杀手和黑帮集结在一个坚不可摧的房子内。到现在为止,破旧的公寓甚至被神勇的警察也视为无法接近的。在黎明前黑暗和寂静的掩护下,一组身兼重要任务精英特警队与执法人员慢慢接近了房子,以便接近臭名昭著的毒枭。但他们袭击的消息被毒枭偶然发现,接着建筑物的灯光被切断,所有的通道被堵。这群特警必须要在世界上最残酷的环境下为生存展开搏斗......##### MediaInfo ######
General
Unique ID                                : 264615015899536684391259230812165472279 (0xC712FF8FA42BE97EBE3367CBE7318017)
Complete name                            : The.Raid.2011.Repack.1080p.BluRay.x265.10bit.DTS.2Audio-SONYHD.mkv
Duration                                 : 1 h 41 min
Overall bit rate                         : 8 322 kb/s
Video
ID                                       : 1
Format                                   : HEVC
Format/Info                              : High Efficiency Video Coding
Format profile                           : Main 10@L5@Main
Codec ID                                 : V_MPEGH/ISO/HEVC
Duration                                 : 1 h 41 min
Bit rate                                 : 5 270 kb/s
Width                                    : 1 920 pixels
Height                                   : 1 080 pixels
Display aspect ratio                     : 16:9
Frame rate mode                          : Constant
Frame rate                               : 23.976 (24000/1001) FPS
Color space                              : YUV
Chroma subsampling                       : 4:2:0
Bit depth                                : 10 bits
Bits/(Pixel*Frame)                       : 0.106
Stream size                              : 3.72 GiB (63%)
Writing library                          : x265 3.5g2b25c9ba0+45:[Windows][GCC 10.2.0][64 bit] Yuuki 10bit+8bit+12bit
Encoding settings                        : rc=crf / crf=17.5000 / qcomp=0.65 / qpstep=4 / stats-write=0 / stats-read=0 / no-lossless / no-cu-lossless / aq-mode=3 / aq-strength=0.80 / cbqpoffs=0 / crqpoffs=0 / ipratio=1.40 / pbratio=1.30 / psy-rd=2.00 / psy-rdoq=0.00 / deblock=0:0 / ref=6 / limit-refs=1 / no-limit-modes / bframes=8 / b-adapt=2 / bframe-bias=0 / b-pyramid / b-intra / weightp / weightb / min-keyint=24 / max-keyint=240 / rc-lookahead=24 / gop-lookahead=0 / scenecut=40 / hist-scenecut=0 / radl=0 / max-cu-size=64 / min-cu-size=8 / me=3 / subme=7 / merange=48 / rdoq-level=0 / rd=4 / rdpenalty=0 / dynamic-rd=0.00 / no-rd-refine / ----- / cutree / sao / no-rect / no-amp / no-open-gop / wpp / no-pmode / no-pme / no-psnr / no-ssim / nr-intra=0 / nr-inter=0 / no-constrained-intra / no-strong-intra-smoothing / max-tu-size=32 / tu-inter-depth=1 / tu-intra-depth=1 / limit-tu=0 / qg-size=32 / qpmax=69 / qpmin=0 / ----- / cpuid=1111039 / frame-threads=5 / numa-pools=+ / log-level=2 / input-csp=1 / input-res=1920x1080 / interlace=0 / level-idc=0 / high-tier=1 / uhd-bd=0 / no-allow-non-conformance / no-repeat-headers / aud / no-hrd / info / hash=0 / no-temporal-layers / lookahead-slices=0 / no-splice / no-intra-refresh / no-ssim-rd / signhide / no-tskip / max-merge=3 / temporal-mvp / no-frame-dup / no-hme / no-analyze-src-pics / no-sao-non-deblock / selective-sao=4 / early-skip / rskip / no-fast-intra / no-tskip-fast / no-splitrd-skip / zone-count=0 / no-strict-cbr / no-rc-grain / no-const-vbv / sar=0 / overscan=0 / videoformat=5 / range=0 / colorprim=2 / transfer=2 / colormatrix=2 / chromaloc=0 / display-window=0 / cll=0,0 / min-luma=0 / max-luma=1023 / log2-max-poc-lsb=8 / vui-timing-info / vui-hrd-info / slices=1 / no-opt-qp-pps / no-opt-ref-list-length-pps / no-multi-pass-opt-rps / scenecut-bias=0.05 / hist-threshold=0.03 / no-opt-cu-delta-qp / no-aq-motion / no-hdr10 / no-hdr10-opt / no-dhdr10-opt / no-idr-recovery-sei / analysis-reuse-level=0 / analysis-save-reuse-level=0 / analysis-load-reuse-level=0 / scale-factor=0 / refine-intra=0 / refine-inter=0 / refine-mv=1 / refine-ctu-distortion=0 / no-limit-sao / ctu-info=0 / no-lowpass-dct / refine-analysis-type=0 / copy-pic=1 / max-ausize-factor=1.0 / no-dynamic-refine / no-single-sei / no-hevc-aq / no-svt / no-field / qp-adaptation-range=1.00 / scenecut-aware-qp=0conformance-window-offsets / right=0 / bottom=0 / decoder-max-rate=0 / no-vbv-live-multi-pass
Language                                 : English
Default                                  : Yes
Forced                                   : No
Audio #1
ID                                       : 2
Format                                   : DTS
Format/Info                              : Digital Theater Systems
Codec ID                                 : A_DTS
Duration                                 : 1 h 41 min
Bit rate mode                            : Constant
Bit rate                                 : 1 509 kb/s
Channel(s)                               : 6 channels
Channel layout                           : C L R Ls Rs LFE
Sampling rate                            : 48.0 kHz
Frame rate                               : 93.750 FPS (512 SPF)
Bit depth                                : 16 bits
Compression mode                         : Lossy
Stream size                              : 1.07 GiB (18%)
Language                                 : English
Default                                  : Yes
Forced                                   : No
Audio #2
ID                                       : 3
Format                                   : DTS
Format/Info                              : Digital Theater Systems
Codec ID                                 : A_DTS
Duration                                 : 1 h 41 min
Bit rate mode                            : Constant
Bit rate                                 : 1 509 kb/s
Channel(s)                               : 6 channels
Channel layout                           : C L R Ls Rs LFE
Sampling rate                            : 48.0 kHz
Frame rate                               : 93.750 FPS (512 SPF)
Bit depth                                : 24 bits
Compression mode                         : Lossy
Stream size                              : 1.07 GiB (18%)
Language                                 : Indonesian
Default                                  : No
Forced                                   : No
Text #1
ID                                       : 4
Format                                   : PGS
Muxing mode                              : zlib
Codec ID                                 : S_HDMV/PGS
Codec ID/Info                            : Picture based subtitle format used on BDs/HD-DVDs
Duration                                 : 1 h 35 min
Bit rate                                 : 19.0 kb/s
Frame rate                               : 0.165 FPS
Count of elements                        : 949
Stream size                              : 13.0 MiB (0%)
Title                                    : chs&eng
Language                                 : Chinese
Default                                  : Yes
Forced                                   : No
Text #2
ID                                       : 5
Format                                   : PGS
Muxing mode                              : zlib
Codec ID                                 : S_HDMV/PGS
Codec ID/Info                            : Picture based subtitle format used on BDs/HD-DVDs
Duration                                 : 1 h 35 min
Bit rate                                 : 19.0 kb/s
Frame rate                               : 0.165 FPS
Count of elements                        : 949
Stream size                              : 13.0 MiB (0%)
Title                                    : cht&eng
Language                                 : Chinese
Default                                  : No
Forced                                   : No
Text #3
ID                                       : 6
Format                                   : PGS
Muxing mode                              : zlib
Codec ID                                 : S_HDMV/PGS
Codec ID/Info                            : Picture based subtitle format used on BDs/HD-DVDs
Duration                                 : 1 h 35 min
Bit rate                                 : 10.3 kb/s
Frame rate                               : 0.165 FPS
Count of elements                        : 949
Stream size                              : 7.02 MiB (0%)
Title                                    : chs
Language                                 : Chinese
Default                                  : No
Forced                                   : No
Text #4
ID                                       : 7
Format                                   : PGS
Muxing mode                              : zlib
Codec ID                                 : S_HDMV/PGS
Codec ID/Info                            : Picture based subtitle format used on BDs/HD-DVDs
Duration                                 : 1 h 35 min
Bit rate                                 : 10.3 kb/s
Frame rate                               : 0.165 FPS
Count of elements                        : 949
Stream size                              : 7.05 MiB (0%)
Title                                    : cht
Language                                 : Chinese
Default                                  : No
Forced                                   : No
Text #5
ID                                       : 8
Format                                   : PGS
Muxing mode                              : zlib
Codec ID                                 : S_HDMV/PGS
Codec ID/Info                            : Picture based subtitle format used on BDs/HD-DVDs
Duration                                 : 1 h 34 min
Bit rate                                 : 13.7 kb/s
Frame rate                               : 0.184 FPS
Count of elements                        : 1043
Stream size                              : 9.29 MiB (0%)
Title                                    : eng
Language                                 : English
Default                                  : No
Forced                                   : No
Menu
00:00:00.000                             : en:Chapter 01
00:06:15.124                             : en:Chapter 02
00:12:36.380                             : en:Chapter 03
00:17:37.765                             : en:Chapter 04
00:22:45.697                             : en:Chapter 05
00:27:06.916                             : en:Chapter 06
00:32:45.880                             : en:Chapter 07
00:37:27.495                             : en:Chapter 08
00:42:37.888                             : en:Chapter 09
00:48:49.927                             : en:Chapter 10
00:55:16.104                             : en:Chapter 11
00:59:58.720                             : en:Chapter 12
01:05:15.828                             : en:Chapter 13
01:10:53.332                             : en:Chapter 14
01:16:29.167                             : en:Chapter 15
01:30:09.779                             : en:Chapter 16
部分资源为软字幕,移动端推荐播放器:MxPlayer,nPlayer,infuse ,其他播放器请自行尝试。
部分资源为软字幕,电脑端推荐播放器:PotPlayer,完美解码,KMPLAYER,其他播放器请自行尝试。






~~~~~~~~~~~~~~~~~~~~~~~~~~~~~~~~~~~~~~~~~
[2011][其它][动作][BD-1080P]突袭[简繁英字幕].The.Raid.2011.Repack.1080p.BluRay.x265.10bit.DTS.2Audio- 5.88GB

【文件列表】:


The.Raid.2011.Repack.1080p.BluRay.x265.10bit.DTS.2Audio-SONYHD.



【下载地址列表】:


游客
文件下载链接就在这里,在您回复评论成功后才能显示。
请勿回复无意义的灌水内容。


下拉页面到最底部回复或者【点击此处快捷回复】,回复后返回此处即可查看下载链接。
如您没注册本站会员,可以点击注册本站,注册后即可回复下载。



软字幕无法在截图上展现,HDR版本/杜比视界版本截图会出现颜色异常,请使用支持的设备播放!






[img][/img]






[img][/img]

(HDR版本/杜比视界版本,截图会出现颜色异常,请使用支持的设备播放)

小贴士:【影视自媒体解说文案请移步:夏至文案解说网 www.xiazhi.vip

上一篇:[2017][欧美][剧情][WEB-4K]午夜凶铃3(美版)[HDR/杜比视界双版本][简繁英字幕].Rings.2017.BluRay.2160p.DTS-HD.MA7.1.HDR.DoVi.x265
下一篇:[2018][其它][喜剧][WEB-1080P]三傻闹地球[国英多音轨/中文字幕].Luis.and.the.Aliens.2018.1080p.WEB-DL.H265.DDP5.1.2Audio-Dream
回复

使用道具 举报

您需要登录后才可以回帖 登录 | 立即注册

本版积分规则

Archiver|手机版|小众纪录片影视聚合

GMT+8, 2024-7-13 00:30 , Processed in 0.652871 second(s), 13 queries , Gzip On, Redis On.

Powered by 小众纪录片影视聚合 @2010-2023

Copyright © 2010-2024, https://www.xzjlp.com/.


免责说明:本站所有内容链接、图文介绍等均来自于互联网网友分享,本站仅支持web页面展示和文字介绍,绝不提供在线观看和存储服务,也不参与录制、上传、压片。若本站收录内容无意侵犯贵司版权,请发邮件到【a885185#163.com】联系本站,我们将在第一时间删除侵权内容。谢谢!

快速回复 返回顶部 返回列表