小众纪录片影视聚合

 找回密码
 立即注册
查看: 5|回复: 0

[蓝光电影] [2018][其它][喜剧][WEB-4K]三傻闹地球[60帧率版本][高码版][国英多音轨/中文字幕].Luis.and.the.Aliens.2018.2160p.HQ.WEB-DL.H265.60f

[复制链接]

113万

主题

113万

帖子

113万

积分

超级版主

Rank: 8Rank: 8

积分
1134816
发表于 2024-7-9 21:23:33 | 显示全部楼层 |阅读模式


[2018][其它][喜剧][WEB-4K]三傻闹地球[60帧率版本][高码版][国英多音轨/中文字幕].Luis.and.the.Aliens.2018.2160p.HQ.WEB-DL.H265.60f

完整标题:三傻闹地球[60帧率版本][高码版][国英多音轨/中文字幕].Luis.and.the.Aliens.2018.2160p.HQ.WEB-DL.H265.60fps.DDP5.1.2Audio-DreamHD 15.49GB
◎标  题 三傻闹地球
◎译  名 路易斯与外星人 / 路易斯和卢卡-登月行动 / Luis & Die Aliens / Luis and His Friends from Outer Space
◎片  名 Luis & the Aliens
◎年  代 2018
◎产  地 德国 / 卢森堡 / 丹麦
◎类  别 喜剧 / 科幻 / 动画 / 冒险
◎语  言 英语 / 西班牙语
◎上映日期 2019-10-26(中国大陆) / 2018-03-02(卢森堡电影节) / 2018-05-24(德国)
◎IMDb评分 6/10 (2719人评价)
◎IMDb链接 https://www.imdb.com/title/tt4410000/
◎豆瓣评分 6.3/10 (3070人评价)
◎豆瓣链接 https://movie.douban.com/subject/30262334/
◎片  长 86分钟
◎导  演 克里斯托弗·劳恩斯坦 Christoph Lauenstein
       沃尔夫冈·劳恩斯坦 Wolfgang Lauenstein
       肖恩·麦克科马克 Sean McCormack
◎编  剧 克里斯托弗·劳恩斯坦 Christoph Lauenstein
       沃尔夫冈·劳恩斯坦 Wolfgang Lauenstein
       乔·瓦伊塔尔 Joe Vitale
       肖恩·麦克科马克 Sean McCormack
       杰弗里·海尔顿 Jeffrey Hylton
       于尔根·沃尔夫 Jurgen Wolff
◎演  员 卡勒姆·马洛尼 Callum Maloney
       德莫特·莫根尼斯 Dermot Magennis
       保罗·泰来克 Paul Tylak
       艾琳·米森 Aileen Mythen
       苏茜·鲍尔 Susie Power
       玛丽·默里 Mary Murray
       威尔·福特 Will Forte
       莉·汤普森 Lea Thompson
◎简  介
    三个外星人因看中电视购物中的按摩毯决定飞往地球,谁知途中飞船坠毁,意外遇见小男孩Luis并与其成为好友。因Luis父亲痴迷于证明太空中智慧生命的存在,而忽略了儿子,导致Luis十分孤独,没有朋友。甚至被校长建议送去寄宿学校。为避免被送去寄宿学校,一场狂乱的冒险就此展开。
点击图片可查看大图
软字幕无法在截图上展现,HDR版本/杜比视界版本截图会出现颜色异常,请使用支持的设备播放!
##### MediaInfo ######
General
Unique ID                                : 124160924739732032204935665866047160230 (0x5D688637BB71E91F4EFC49D421E2FFA6)
Complete name                            : Luis.and.the.Aliens.2018.2160p.HQ.WEB-DL.H265.60fps.DDP5.1.2Audio-DreamHD.mkv
Duration                                 : 1 h 25 min
Overall bit rate                         : 25.9 Mb/s
Video
ID                                       : 1
Format                                   : HEVC
Format/Info                              : High Efficiency Video Coding
Format profile                           : Main [email protected]@Main
Codec ID                                 : V_MPEGH/ISO/HEVC
Duration                                 : 1 h 25 min
Bit rate                                 : 24.9 Mb/s
Width                                    : 3 840 pixels
Height                                   : 2 072 pixels
Display aspect ratio                     : 1.85:1
Frame rate mode                          : Constant
Frame rate                               : 60.000 FPS
Color space                              : YUV
Chroma subsampling                       : 4:2:0
Bit depth                                : 10 bits
Bits/(Pixel*Frame)                       : 0.052
Stream size                              : 14.9 GiB (96%)
Default                                  : Yes
Forced                                   : No
Color range                              : Limited
Color primaries                          : BT.709
Transfer characteristics                 : BT.709
Matrix coefficients                      : BT.709
Audio #1
ID                                       : 2
Format                                   : E-AC-3
Format/Info                              : Enhanced AC-3
Commercial name                          : Dolby Digital Plus
Codec ID                                 : A_EAC3
Duration                                 : 1 h 25 min
Bit rate mode                            : Constant
Bit rate                                 : 256 kb/s
Channel(s)                               : 6 channels
Channel layout                           : L R C LFE Ls Rs
Sampling rate                            : 48.0 kHz
Frame rate                               : 31.250 FPS (1536 SPF)
Compression mode                         : Lossy
Stream size                              : 157 MiB (1%)
Title                                    : [DDP5.1]
Language                                 : English
Service kind                             : Complete Main
Default                                  : Yes
Forced                                   : No
Audio #2
ID                                       : 3
Format                                   : E-AC-3
Format/Info                              : Enhanced AC-3
Commercial name                          : Dolby Digital Plus
Codec ID                                 : A_EAC3
Duration                                 : 1 h 25 min
Bit rate mode                            : Constant
Bit rate                                 : 256 kb/s
Channel(s)                               : 6 channels
Channel layout                           : L R C LFE Ls Rs
Sampling rate                            : 48.0 kHz
Frame rate                               : 31.250 FPS (1536 SPF)
Compression mode                         : Lossy
Stream size                              : 157 MiB (1%)
Title                                    : Mandarin [DDP5.1]
Language                                 : Chinese
Service kind                             : Complete Main
Default                                  : No
Forced                                   : No
Audio #3
ID                                       : 4
Format                                   : AAC LC
Format/Info                              : Advanced Audio Codec Low Complexity
Codec ID                                 : A_AAC-2
Duration                                 : 1 h 25 min
Bit rate                                 : 256 kb/s
Channel(s)                               : 2 channels
Channel layout                           : L R
Sampling rate                            : 44.1 kHz
Frame rate                               : 43.066 FPS (1024 SPF)
Compression mode                         : Lossy
Stream size                              : 157 MiB (1%)
Title                                    : [AAC2.0]
Language                                 : English
Default                                  : No
Forced                                   : No
Audio #4
ID                                       : 5
Format                                   : AAC LC
Format/Info                              : Advanced Audio Codec Low Complexity
Codec ID                                 : A_AAC-2
Duration                                 : 1 h 25 min
Bit rate                                 : 192 kb/s
Channel(s)                               : 2 channels
Channel layout                           : L R
Sampling rate                            : 44.1 kHz
Frame rate                               : 43.066 FPS (1024 SPF)
Compression mode                         : Lossy
Stream size                              : 116 MiB (1%)
Title                                    : Mandarin [AAC2.0]
Language                                 : Chinese
Default                                  : No
Forced                                   : No
部分资源为软字幕,移动端推荐播放器:MxPlayer,nPlayer,infuse ,其他播放器请自行尝试。
部分资源为软字幕,电脑端推荐播放器:PotPlayer,完美解码,KMPLAYER,其他播放器请自行尝试。






~~~~~~~~~~~~~~~~~~~~~~~~~~~~~~~~~~~~~~~~~
[2018][其它][喜剧][WEB-4K]三傻闹地球[60帧率版本][高码版][国英多音轨/中文字幕].Luis.and.the.Aliens.2018.2160p.HQ.WEB-DL.H265.60f

【文件列表】:


Luis.and.the.Aliens.2018.2160p.HQ.WEB-DL.H265.60fps.DDP5.1.2Audio-DreamHD.



【下载地址列表】:


游客
文件下载链接就在这里,在您回复评论成功后才能显示。
请勿回复无意义的灌水内容。


下拉页面到最底部回复或者【点击此处快捷回复】,回复后返回此处即可查看下载链接。
如您没注册本站会员,可以点击注册本站,注册后即可回复下载。



软字幕无法在截图上展现,HDR版本/杜比视界版本截图会出现颜色异常,请使用支持的设备播放!






[img][/img]






[img][/img]

(HDR版本/杜比视界版本,截图会出现颜色异常,请使用支持的设备播放)

小贴士:【影视自媒体解说文案请移步:夏至文案解说网 www.xiazhi.vip

上一篇:[2018][其它][喜剧][WEB-1080P]三傻闹地球[国英多音轨/中文字幕].Luis.and.the.Aliens.2018.1080p.WEB-DL.H265.DDP5.1.2Audio-Dream
下一篇:[2018][其它][喜剧][WEB-4K]三傻闹地球[高码版][国英多音轨/中文字幕].Luis.and.the.Aliens.2018.2160p.HQ.WEB-DL.H265.DDP5.1.2Aud
回复

使用道具 举报

您需要登录后才可以回帖 登录 | 立即注册

本版积分规则

Archiver|手机版|小众纪录片影视聚合

GMT+8, 2024-7-22 07:39 , Processed in 0.101601 second(s), 13 queries , Gzip On, Redis On.

Powered by 小众纪录片影视聚合 @2010-2023

Copyright © 2010-2024, https://www.xzjlp.com/.


免责说明:本站所有内容链接、图文介绍等均来自于互联网网友分享,本站仅支持web页面展示和文字介绍,绝不提供在线观看和存储服务,也不参与录制、上传、压片。若本站收录内容无意侵犯贵司版权,请发邮件到【a885185#163.com】联系本站,我们将在第一时间删除侵权内容。谢谢!

快速回复 返回顶部 返回列表