小众纪录片影视聚合

 找回密码
 立即注册
查看: 5|回复: 0

[蓝光电影] [2017][欧美][剧情][WEB-4K]午夜凶铃3(美版)[HDR/杜比视界双版本][简繁英字幕].Rings.2017.2160p.UHD.BluRay.x265.10bit.DV.DTS-HD.M

[复制链接]

113万

主题

113万

帖子

113万

积分

超级版主

Rank: 8Rank: 8

积分
1134503
发表于 2024-7-9 21:23:43 | 显示全部楼层 |阅读模式


[2017][欧美][剧情][WEB-4K]午夜凶铃3(美版)[HDR/杜比视界双版本][简繁英字幕].Rings.2017.2160p.UHD.BluRay.x265.10bit.DV.DTS-HD.M

完整标题:午夜凶铃3(美版)[HDR/杜比视界双版本][简繁英字幕].Rings.2017.2160p.UHD.BluRay.x265.10bit.DV.DTS-HD.MA.7.1-SONYHD 26.77GB
◎标  题 午夜凶铃3(美版)
◎译  名 美版午夜凶铃3 / 回魂凶铃(港) / 七夜怪谭(台) / 新午夜凶铃(美版) / The Ring / The Ring 3 / The Ring 3D
◎年  代 2017
◎产  地 美国
◎类  别 剧情 / 恐怖
◎语  言 英语
◎上映日期 2017-02-01(法国) / 2017-02-03(美国)
◎IMDb评分 4.5/10 (41599人评价)
◎IMDb链接 https://www.imdb.com/title/tt0498381/
◎豆瓣评分 5.3/10 (5420人评价)
◎豆瓣链接 https://movie.douban.com/subject/1584991/
◎片  长 102分钟
◎导  演 F·贾维尔·古铁雷斯 F. Javier Gutiérrez
◎编  剧 大卫·卢卡 David Loucka
       雅各布·艾伦·埃斯戴斯 Jacob Aaron Estes
       阿齐瓦·高斯曼 Akiva Goldsman
       铃木光司 Kôji Suzuki
◎演  员 玛蒂尔达·鲁茨 Matilda Anna Ingrid Lutz
       亚历克斯·罗伊 Alex Roe
       约翰尼·盖尔克奇 Johnny Galecki
       文森特·多诺费奥 Vincent D'Onofrio
       艾米·缇加登 Aimee Teegarden
       邦妮·摩根 Bonnie Morgan
       查克·大卫·威利斯 Chuck David Willis
       帕特里克·R·沃克 Patrick R. Walker
       扎齐·罗伊瑞格 Zach Roerig
       劳拉·威金斯 Laura Wiggins
       丽兹·布罗谢 Lizzie Brocheré
       凯伦·西塞 Karen Ceesay
       大卫·布莱米 Dave Blamy
       迈克尔·桑德斯 Mike Sanders
       兰德尔·泰勒 Randall Taylor
       吉尔·简·克莱门茨 Jill Jane Clements
       安德莉亚·鲍威尔 Andrea Powell
       大卫·多尔夫曼 David Dorfman
       克里斯·格林 Chris Greene
       杰里米·哈里森 Jeremy Harrison
       杰伊·皮尔森 Jay Pearson
       瑞奇·缪斯 Ricky Muse
       瑞安·刘易斯 Ryan Lewis
       萝丝·比安科 Rose Bianco
◎简  介
    年轻女孩茱莉娅(玛蒂尔达·鲁茨 Matilda Lutz 饰)和男友霍尔特(阿历克斯·罗 Alex Roe 饰)分隔两地,相互思念。某晚在一个奇怪的梦后,茱莉娅发现霍尔特不见了踪影,视频通话中则有一个疯狂的女子咆哮质问,四下寻找霍尔特的下落。充满担忧的茱莉娅启程前往霍尔特所在的学校,并因缘际会见到了视频中的那个女孩斯盖伊,谁知更因此目睹了斯盖伊离奇的死亡。在此之后,霍尔特出现,他说自己接收了加布里埃尔教授(约翰尼·盖尔克奇 Johnny Galecki 饰)的一个实验,表面上该实验是为了证明人死后灵魂的存在,实则他们是观看那盘受诅咒的录像带,观看者在死亡前将录像转给下一个“替身”,然而死亡者接连出现。                                    就在此时,茱莉娅也观看了这盘恐怖的录像带……##### MediaInfo ######
General
Unique ID                                : 2647652357314634777538418889268649364 (0x1FDEB56F6FEFCBF9E7831D8F3FBDD94)
Complete name                            : Rings.2017.2160p.UHD.BluRay.x265.10bit.DV.DTS-HD.MA.7.1-SONYHD.mkv
Duration                                 : 1 h 42 min
Overall bit rate mode                    : Variable
Overall bit rate                         : 37.5 Mb/s
Video
ID                                       : 1
Format                                   : HEVC
Format/Info                              : High Efficiency Video Coding
Format profile                           : Main [email protected]@High
HDR format                               : Dolby Vision, Version 1.0, dvhe.08.06, BL+RPU, HDR10 compatible / SMPTE ST 2086, HDR10 compatible
Codec ID                                 : V_MPEGH/ISO/HEVC
Duration                                 : 1 h 42 min
Bit rate                                 : 33.1 Mb/s
Width                                    : 3 840 pixels
Height                                   : 2 076 pixels
Display aspect ratio                     : 1.85:1
Frame rate mode                          : Constant
Frame rate                               : 23.976 (24000/1001) FPS
Color space                              : YUV
Chroma subsampling                       : 4:2:0 (Type 2)
Bit depth                                : 10 bits
Bits/(Pixel*Frame)                       : 0.173
Stream size                              : 23.6 GiB (88%)
Writing library                          : x265 3.5g2b25c9ba0+45:[Windows][MSVC 1926][64 bit] Yuuki 10bit+8bit+12bit
Encoding settings                        : rc=crf / crf=17.7800 / qcomp=0.60 / qpstep=4 / stats-write=0 / stats-read=0 / vbv-maxrate=160000 / vbv-bufsize=160000 / vbv-init=0.9 / min-vbv-fullness=50.0 / max-vbv-fullness=80.0 / crf-max=0.0 / crf-min=0.0 / no-lossless / no-cu-lossless / aq-mode=3 / aq-strength=0.70 / cbqpoffs=0 / crqpoffs=0 / ipratio=1.40 / pbratio=1.30 / psy-rd=2.00 / psy-rdoq=2.00 / deblock=-3:-3 / ref=5 / limit-refs=1 / no-limit-modes / bframes=11 / b-adapt=2 / bframe-bias=0 / b-pyramid / b-intra / weightp / weightb / min-keyint=1 / max-keyint=240 / rc-lookahead=72 / gop-lookahead=0 / scenecut=40 / hist-scenecut=0 / radl=0 / max-cu-size=64 / min-cu-size=8 / me=3 / subme=6 / merange=48 / rdoq-level=2 / rd=4 / rdpenalty=0 / dynamic-rd=0.00 / no-rd-refine / ----- / no-cutree / no-sao / no-rect / no-amp / no-open-gop / wpp / no-pmode / no-pme / no-psnr / no-ssim / nr-intra=0 / nr-inter=0 / no-constrained-intra / no-strong-intra-smoothing / max-tu-size=32 / tu-inter-depth=4 / tu-intra-depth=4 / limit-tu=0 / qg-size=32 / qpmax=69 / qpmin=0 / ----- / cpuid=1111039 / frame-threads=4 / numa-pools=+ / log-level=2 / input-csp=1 / input-res=3840x2076 / interlace=0 / level-idc=51 / high-tier=1 / uhd-bd=0 / no-allow-non-conformance / repeat-headers / aud / hrd / info / hash=0 / no-temporal-layers / lookahead-slices=0 / no-splice / no-intra-refresh / no-ssim-rd / signhide / no-tskip / max-merge=5 / temporal-mvp / no-frame-dup / no-hme / analyze-src-pics / no-sao-non-deblock / selective-sao=0 / early-skip / rskip / no-fast-intra / no-tskip-fast / no-splitrd-skip / zone-count=0 / no-strict-cbr / no-rc-grain / no-const-vbv / sar=0 / overscan=0 / videoformat=5 / range=0 / colorprim=9 / transfer=16 / colormatrix=9 / chromaloc=1 / chromaloc-top=2 / chromaloc-bottom=2 / display-window=0 / master-display=G(8500,39850)B(6550,2300)R(35400,14600)WP(15635,16450)L(40000000,50) / cll=447,92 / min-luma=0 / max-luma=1023 / log2-max-poc-lsb=8 / vui-timing-info / vui-hrd-info / slices=1 / no-opt-qp-pps / no-opt-ref-list-length-pps / no-multi-pass-opt-rps / scenecut-bias=0.05 / hist-threshold=0.03 / no-opt-cu-delta-qp / no-aq-motion / hdr10 / hdr10-opt / no-dhdr10-opt / no-idr-recovery-sei / analysis-reuse-level=0 / analysis-save-reuse-level=0 / analysis-load-reuse-level=0 / scale-factor=0 / refine-intra=0 / refine-inter=0 / refine-mv=1 / refine-ctu-distortion=0 / no-limit-sao / ctu-info=0 / no-lowpass-dct / refine-analysis-type=0 / copy-pic=1 / max-ausize-factor=1.0 / no-dynamic-refine / no-single-sei / no-hevc-aq / no-svt / no-field / qp-adaptation-range=1.00 / scenecut-aware-qp=0conformance-window-offsets / right=0 / bottom=0 / decoder-max-rate=0 / no-vbv-live-multi-pass
Default                                  : Yes
Forced                                   : No
Color range                              : Limited
Color primaries                          : BT.2020
Transfer characteristics                 : PQ
Matrix coefficients                      : BT.2020 non-constant
Mastering display color primaries        : BT.2020
Mastering display luminance              : min: 0.0050 cd/m2, max: 4000 cd/m2
Maximum Content Light Level              : 447 cd/m2
Maximum Frame-Average Light Level        : 92 cd/m2
Audio
ID                                       : 2
ID in the original source medium         : 4352 (0x1100)
Format                                   : DTS ES XLL
Format/Info                              : Digital Theater Systems
Commercial name                          : DTS-HD Master Audio
Codec ID                                 : A_DTS
Duration                                 : 1 h 42 min
Bit rate mode                            : Variable
Bit rate                                 : 4 391 kb/s
Channel(s)                               : 8 channels
Channel layout                           : C L R Ls Rs LFE Lb Rb
Sampling rate                            : 48.0 kHz
Frame rate                               : 93.750 FPS (512 SPF)
Bit depth                                : 24 bits
Compression mode                         : Lossless
Stream size                              : 3.13 GiB (12%)
Title                                    : English
Language                                 : English
Default                                  : Yes
Forced                                   : No
Original source medium                   : Blu-ray
Text #1
ID                                       : 3
ID in the original source medium         : 4769 (0x12A1)
Format                                   : PGS
Muxing mode                              : zlib
Codec ID                                 : S_HDMV/PGS
Codec ID/Info                            : Picture based subtitle format used on BDs/HD-DVDs
Duration                                 : 1 h 37 min
Bit rate                                 : 25.4 kb/s
Frame rate                               : 0.277 FPS
Count of elements                        : 1628
Stream size                              : 17.8 MiB (0%)
Title                                    : chs&eng
Language                                 : Chinese
Default                                  : Yes
Forced                                   : No
Original source medium                   : Blu-ray
Text #2
ID                                       : 4
ID in the original source medium         : 4770 (0x12A2)
Format                                   : PGS
Muxing mode                              : zlib
Codec ID                                 : S_HDMV/PGS
Codec ID/Info                            : Picture based subtitle format used on BDs/HD-DVDs
Duration                                 : 1 h 37 min
Bit rate                                 : 25.5 kb/s
Frame rate                               : 0.277 FPS
Count of elements                        : 1628
Stream size                              : 17.9 MiB (0%)
Title                                    : cht&eng
Language                                 : Chinese
Default                                  : No
Forced                                   : No
Original source medium                   : Blu-ray
Text #3
ID                                       : 5
ID in the original source medium         : 4771 (0x12A3)
Format                                   : PGS
Muxing mode                              : zlib
Codec ID                                 : S_HDMV/PGS
Codec ID/Info                            : Picture based subtitle format used on BDs/HD-DVDs
Duration                                 : 1 h 37 min
Bit rate                                 : 14.3 kb/s
Frame rate                               : 0.277 FPS
Count of elements                        : 1628
Stream size                              : 10.0 MiB (0%)
Title                                    : chs
Language                                 : Chinese
Default                                  : No
Forced                                   : No
Original source medium                   : Blu-ray
Text #4
ID                                       : 6
ID in the original source medium         : 4772 (0x12A4)
Format                                   : PGS
Muxing mode                              : zlib
Codec ID                                 : S_HDMV/PGS
Codec ID/Info                            : Picture based subtitle format used on BDs/HD-DVDs
Duration                                 : 1 h 37 min
Bit rate                                 : 14.4 kb/s
Frame rate                               : 0.277 FPS
Count of elements                        : 1628
Stream size                              : 10.1 MiB (0%)
Title                                    : cht
Language                                 : Chinese
Default                                  : No
Forced                                   : No
Original source medium                   : Blu-ray
Text #5
ID                                       : 7
ID in the original source medium         : 4768 (0x12A0)
Format                                   : PGS
Muxing mode                              : zlib
Codec ID                                 : S_HDMV/PGS
Codec ID/Info                            : Picture based subtitle format used on BDs/HD-DVDs
Duration                                 : 1 h 41 min
Bit rate                                 : 26.5 kb/s
Frame rate                               : 0.410 FPS
Count of elements                        : 2504
Stream size                              : 19.3 MiB (0%)
Title                                    : eng
Language                                 : English
Default                                  : No
Forced                                   : No
Original source medium                   : Blu-ray
Menu
00:00:00.000                             : en:Chapter 01
00:08:42.522                             : en:Chapter 02
00:20:40.195                             : en:Chapter 03
00:27:45.704                             : en:Chapter 04
00:35:53.775                             : en:Chapter 05
00:44:21.074                             : en:Chapter 06
00:53:04.931                             : en:Chapter 07
01:00:24.536                             : en:Chapter 08
01:08:53.002                             : en:Chapter 09
01:18:21.113                             : en:Chapter 10
01:25:04.099                             : en:Chapter 11
01:32:43.349                             : en:Chapter 12
部分资源为软字幕,移动端推荐播放器:MxPlayer,nPlayer,infuse ,其他播放器请自行尝试。
部分资源为软字幕,电脑端推荐播放器:PotPlayer,完美解码,KMPLAYER,其他播放器请自行尝试。






~~~~~~~~~~~~~~~~~~~~~~~~~~~~~~~~~~~~~~~~~
[2017][欧美][剧情][WEB-4K]午夜凶铃3(美版)[HDR/杜比视界双版本][简繁英字幕].Rings.2017.2160p.UHD.BluRay.x265.10bit.DV.DTS-HD.M

【文件列表】:


Rings.2017.2160p.UHD.BluRay.x265.10bit.DV.DTS-HD.MA.7.1-SONYHD.

Rings.2017.2160p.UHD.BluRay.x265.10bit.DV.DTS-HD.MA.7.1-SONYHD.



【下载地址列表】:


游客
文件下载链接就在这里,在您回复评论成功后才能显示。
请勿回复无意义的灌水内容。


下拉页面到最底部回复或者【点击此处快捷回复】,回复后返回此处即可查看下载链接。
如您没注册本站会员,可以点击注册本站,注册后即可回复下载。



软字幕无法在截图上展现,HDR版本/杜比视界版本截图会出现颜色异常,请使用支持的设备播放!






[img][/img]






[img][/img]

(HDR版本/杜比视界版本,截图会出现颜色异常,请使用支持的设备播放)

小贴士:【影视自媒体解说文案请移步:夏至文案解说网 www.xiazhi.vip

上一篇:[2023][其它][剧情][WEB-4K]狗神[HDR/杜比视界双版本][简繁英字幕].Dogman.2023.2160p.BluRay.DoVi.x265.10bit.Atmos.TrueHD7.1-
下一篇:[2023][韩国][剧情][BD-1080P]月球[简繁英字幕].The.Moon.2023.1080p.BluRay.x264.DTS- 11.09GB
回复

使用道具 举报

您需要登录后才可以回帖 登录 | 立即注册

本版积分规则

Archiver|手机版|小众纪录片影视聚合

GMT+8, 2024-7-22 06:04 , Processed in 0.087649 second(s), 14 queries , Gzip On, Redis On.

Powered by 小众纪录片影视聚合 @2010-2023

Copyright © 2010-2024, https://www.xzjlp.com/.


免责说明:本站所有内容链接、图文介绍等均来自于互联网网友分享,本站仅支持web页面展示和文字介绍,绝不提供在线观看和存储服务,也不参与录制、上传、压片。若本站收录内容无意侵犯贵司版权,请发邮件到【a885185#163.com】联系本站,我们将在第一时间删除侵权内容。谢谢!

快速回复 返回顶部 返回列表