小众纪录片影视聚合

 找回密码
 立即注册
查看: 11|回复: 0

[蓝光电影] [2017][大陆][剧情][WEB-4K]二妮的山村梦[国语配音/中文字幕].Er.Ni.De.Shan.Cun.Meng.2017.2160p.WEB-DL.H265.AAC- 2.24G

[复制链接]

116万

主题

116万

帖子

116万

积分

超级版主

Rank: 8Rank: 8

积分
1167997
发表于 2024-7-9 21:23:53 | 显示全部楼层 |阅读模式


[2017][大陆][剧情][WEB-4K]二妮的山村梦[国语配音/中文字幕].Er.Ni.De.Shan.Cun.Meng.2017.2160p.WEB-DL.H265.AAC- 2.24G

完整标题:二妮的山村梦[国语配音/中文字幕].Er.Ni.De.Shan.Cun.Meng.2017.2160p.WEB-DL.H265.AAC-BATWEB 2.24GB
◎标  题 二妮的山村梦
◎年  代 2017
◎产  地 中国大陆
◎类  别 剧情
◎语  言 汉语普通话
◎上映日期 2017-11-04(中国大陆)
◎IMDb链接 https://www.imdb.com/title//
◎豆瓣链接 https://movie.douban.com/subject/27191642/
◎片  长 103分钟
◎简  介
    该剧讲述了农村青年妇女梁二妮,在村集体亏空欠债的情况下,帮助困难户,解决村民看病难、上学难的一系列问题,发展乡村旅游产业的故事。塑造了基层党支部书记梁二妮为群众谋福利,为村庄谋发展的人物形象。
点击图片可查看大图
软字幕无法在截图上展现,HDR版本/杜比视界版本截图会出现颜色异常,请使用支持的设备播放!
##### MediaInfo ######
General
Complete name                            : Er.Ni.De.Shan.Cun.Meng.2017.2160p.WEB-DL.H265.AAC-BATWEB.mp4
Duration                                 : 1 h 48 min
Overall bit rate mode                    : Variable
Overall bit rate                         : 2 965 kb/s
Video
ID                                       : 1
Format                                   : HEVC
Format/Info                              : High Efficiency Video Coding
Format profile                           : Main@L5@Main
Codec ID                                 : hev1
Codec ID/Info                            : High Efficiency Video Coding
Duration                                 : 1 h 48 min
Source duration                          : 1 h 48 min
Bit rate                                 : 2 896 kb/s
Width                                    : 3 840 pixels
Height                                   : 2 160 pixels
Display aspect ratio                     : 16:9
Frame rate mode                          : Variable
Frame rate                               : 24.000 FPS
Minimum frame rate                       : 23.994 FPS
Maximum frame rate                       : 24.006 FPS
Color space                              : YUV
Chroma subsampling                       : 4:2:0
Bit depth                                : 8 bits
Bits/(Pixel*Frame)                       : 0.015
Stream size                              : 2.19 GiB (98%)
Source stream size                       : 2.19 GiB (98%)
mdhd_Duration                            : 6495417
Codec configuration box                  : hvcC
Audio
ID                                       : 2
Format                                   : AAC LC SBR
Format/Info                              : Advanced Audio Codec Low Complexity with Spectral Band Replication
Commercial name                          : HE-AAC
Format settings                          : Implicit
Codec ID                                 : mp4a-40-2
Duration                                 : 1 h 48 min
Bit rate mode                            : Variable
Bit rate                                 : 62.7 kb/s
Maximum bit rate                         : 64.6 kb/s
Channel(s)                               : 2 channels
Channel layout                           : L R
Sampling rate                            : 48.0 kHz
Frame rate                               : 23.438 FPS (2048 SPF)
Compression mode                         : Lossy
Stream size                              : 48.5 MiB (2%)
Default                                  : Yes
Alternate group                          : 1
部分资源为软字幕,移动端推荐播放器:MxPlayer,nPlayer,infuse ,其他播放器请自行尝试。
部分资源为软字幕,电脑端推荐播放器:PotPlayer,完美解码,KMPLAYER,其他播放器请自行尝试。






~~~~~~~~~~~~~~~~~~~~~~~~~~~~~~~~~~~~~~~~~
[2017][大陆][剧情][WEB-4K]二妮的山村梦[国语配音/中文字幕].Er.Ni.De.Shan.Cun.Meng.2017.2160p.WEB-DL.H265.AAC- 2.24G

【文件列表】:


Er.Ni.De.Shan.Cun.Meng.2017.2160p.WEB-DL.H265.AAC-BATWEB.



【下载地址列表】:


游客
文件下载链接就在这里,在您回复评论成功后才能显示。
请勿回复无意义的灌水内容。


下拉页面到最底部回复或者【点击此处快捷回复】,回复后返回此处即可查看下载链接。
如您没注册本站会员,可以点击注册本站,注册后即可回复下载。



软字幕无法在截图上展现,HDR版本/杜比视界版本截图会出现颜色异常,请使用支持的设备播放!






[img][/img]






[img][/img]

(HDR版本/杜比视界版本,截图会出现颜色异常,请使用支持的设备播放)

小贴士:【影视自媒体解说文案请移步:夏至文案解说网 www.xiazhi.vip

上一篇:[2023][韩国][剧情][BD-1080P]月球[简繁英字幕].The.Moon.2023.1080p.BluRay.x265.10bit.DTS- 7.04GB
下一篇:[2009][大陆][WEB-1080P]小村大道[国语配音/中文字幕].Xiao.Cun.Da.Dao.2009.1080p.WEB-DL.H264.AAC- 1.79GB
回复

使用道具 举报

您需要登录后才可以回帖 登录 | 立即注册

本版积分规则

Archiver|手机版|小众纪录片影视聚合

GMT+8, 2024-7-24 23:26 , Processed in 0.173923 second(s), 13 queries , Gzip On, Redis On.

Powered by 小众纪录片影视聚合 @2010-2023

Copyright © 2010-2024, https://www.xzjlp.com/.


免责说明:本站所有内容链接、图文介绍等均来自于互联网网友分享,本站仅支持web页面展示和文字介绍,绝不提供在线观看和存储服务,也不参与录制、上传、压片。若本站收录内容无意侵犯贵司版权,请发邮件到【a885185#163.com】联系本站,我们将在第一时间删除侵权内容。谢谢!

快速回复 返回顶部 返回列表